<?xml version="1.0" standalone="no"?>
<!DOCTYPE svg PUBLIC "-//W3C//DTD SVG 1.1//EN" "http://www.w3.org/Graphics/SVG/1.1/DTD/svg11.dtd" >
<!--
2021-1-5: Created with FontForge (http://fontforge.org)
-->
<svg xmlns="http://www.w3.org/2000/svg" xmlns:xlink="http://www.w3.org/1999/xlink" version="1.1">
<metadata>
Created by FontForge 20170731 at Tue Jan  5 20:07:57 2021
 By root

</metadata>
<defs>
<font id="Flaticon" horiz-adv-x="512" >
  <font-face 
    font-family="Flaticon"
    font-weight="400"
    font-stretch="normal"
    units-per-em="512"
    panose-1="2 0 5 3 0 0 0 0 0 0"
    ascent="448"
    descent="-64"
    bbox="-0.012207 -64.0166 513.002 448.502"
    underline-thickness="25.6"
    underline-position="-51.2"
    unicode-range="U+0020-F13B"
  />
    <missing-glyph />
    <glyph glyph-name="space" unicode=" " horiz-adv-x="200" 
 />
    <glyph glyph-name="015-vimeo-1" unicode="&#xf10e;" 
d="M437.27 415.894c52.7354 -1.30176 77.376 -35.8613 74.5176 -103.382l-0.277344 -0.212891c-2.24023 -50.3682 -37.0986 -119.424 -104.406 -207.04c-69.7168 -91.5205 -128.554 -137.259 -176.853 -137.259c-30.0586 0 -54.998 27.8828 -75.7979 83.627
c-30.9971 101.013 -50.3252 236.843 -90.2402 236.843c-3.81836 0 -17.1943 -8.14941 -40.1279 -24.4053l-24.085 31.4023c50.1338 44.6289 113.941 110.464 150.507 113.941c39.8291 3.86133 64.3408 -23.7227 73.5361 -82.71
c6.61328 -42.4316 26.1328 -197.823 58.6025 -197.823c10.709 0 26.7949 17.1514 48.3203 51.3916c21.418 34.2402 32.8525 60.2666 34.3887 78.165c3.07227 29.5469 -8.42676 44.416 -34.4316 44.416c-12.2451 0 -24.8965 -2.60254 -37.9092 -8.42676
c25.3008 83.3496 73.2588 124.054 144.256 121.473z" />
    <glyph glyph-name="028-mail-1" unicode="&#xf11b;" 
d="M49.1416 269.141c-11.8076 7.99902 -22.9531 19 -33.4268 33c-10.4746 13.999 -15.7148 27.0029 -15.7148 39.002c0 14.8564 3.95215 27.2373 11.8555 37.1426c7.90527 9.90332 19.1914 14.8545 33.8564 14.8545h420.572c12.3779 0 23.0938 -4.47363 32.1406 -13.4277
c9.04883 -8.95117 13.5752 -19.7139 13.5752 -32.2871c0 -15.0459 -4.66406 -29.4277 -14.0029 -43.1367c-9.33203 -13.7148 -20.9482 -25.4316 -34.8525 -35.1416c-71.6162 -49.7168 -116.192 -80.6699 -133.713 -92.8584
c-1.9043 -1.33594 -5.95508 -4.23535 -12.1436 -8.71582c-6.19238 -4.47949 -11.333 -8.09863 -15.4287 -10.8604c-4.0957 -2.75879 -9.04785 -5.85156 -14.8555 -9.2832c-5.80566 -3.42188 -11.2871 -6.00098 -16.4287 -7.70605
c-5.14355 -1.71777 -9.90723 -2.57031 -14.2871 -2.57031h-0.288086h-0.287109c-4.37988 0 -9.1416 0.851562 -14.2852 2.57031c-5.14355 1.70508 -10.6201 4.28125 -16.4307 7.70605c-5.81152 3.42676 -10.7637 6.52344 -14.8594 9.2832
c-4.09277 2.76172 -9.2373 6.38086 -15.4277 10.8604c-6.18945 4.47656 -10.2354 7.37988 -12.1396 8.71582c-17.334 12.1885 -42.2861 29.5674 -74.8574 52.1377s-52.0947 36.1445 -58.5713 40.7148zM483.425 238.572c10.8633 7.42578 20.3838 15.7168 28.5762 24.8555
v-226.851c0 -12.5801 -4.47266 -23.333 -13.4277 -32.2881c-8.95215 -8.95605 -19.7158 -13.4316 -32.2842 -13.4316h-420.573c-12.5723 0 -23.3369 4.47559 -32.2881 13.4316c-8.95312 8.95215 -13.4277 19.709 -13.4277 32.2881v226.851
c8.38086 -9.33105 18 -17.6221 28.8604 -24.8555c68.9512 -46.8555 116.283 -79.7178 141.999 -98.5732c10.8564 -7.99707 19.667 -14.2393 26.4268 -18.7129c6.76172 -4.47559 15.7637 -9.04785 27 -13.7119c11.2363 -4.6709 21.7139 -7 31.4277 -7h0.287109h0.291016
c9.7168 0 20.1875 2.3291 31.4238 7c11.2402 4.66406 20.2363 9.23633 27 13.7119c6.76367 4.47363 15.5713 10.7158 26.4287 18.7129c32.376 23.4307 79.8105 56.291 142.28 98.5732z" />
    <glyph glyph-name="009-twitter-1" unicode="&#xf108;" 
d="M512 350.752c-14.2725 -21.248 -31.7764 -39.7119 -52.6084 -54.4961c0.224609 -4.44824 0.384766 -8.92773 0.384766 -13.5674c0 -138.688 -105.601 -298.688 -298.752 -298.688c-59.4248 0 -114.528 17.1201 -161.024 47.1035
c8.25586 -1.05566 16.5117 -1.43945 25.1201 -1.43945c49.0879 0 94.4316 16.832 130.144 44.7676c-45.8877 0.992188 -84.4795 31.5527 -98.0801 73.1201c6.36816 -1.4082 13.1523 -1.79199 19.8721 -1.79199c9.66406 0 18.9766 1.12012 27.5205 3.45605
c-47.7119 9.75977 -84.0957 52.1279 -84.0957 103.136v1.15234c14.0156 -7.71191 30.5596 -12.6074 47.4238 -12.9277c-27.9043 18.6562 -46.624 50.8799 -46.624 87.2314c0 19.3604 5.31152 37.3447 14.3682 53.0566c51.8711 -63.7119 129.088 -105.536 216.352 -109.792
c-1.72754 7.61621 -2.43164 15.6162 -2.43164 23.9355c0 57.8242 46.7832 104.992 104.896 104.992c29.9521 0 57.4082 -12.7041 76.6719 -33.2158c23.8721 4.76758 46.2725 13.3115 66.5605 25.4082c-7.80859 -24.6084 -24.416 -45.0244 -46.1768 -58.0166
c21.1523 2.68848 41.4404 8.22461 60.4805 16.5762z" />
    <glyph glyph-name="029-mail-2" unicode="&#xf11c;" 
d="M498.571 379.715c8.95605 -8.95117 13.4277 -19.7139 13.4287 -32.2871v-310.859c0 -12.5693 -4.47266 -23.3291 -13.4277 -32.2803c-8.95215 -8.95996 -19.7158 -13.4316 -32.2842 -13.4316h-420.573c-12.5713 0 -23.3359 4.47168 -32.2871 13.4316
c-8.95312 8.95117 -13.4277 19.7051 -13.4277 32.2803v310.859c0 12.5732 4.47461 23.3359 13.4277 32.2871c8.95215 8.9541 19.7168 13.4277 32.2871 13.4277h420.572c12.5684 0 23.333 -4.47363 32.2842 -13.4277zM475.425 36.5752v0v219.427
c-6.08594 -6.85645 -12.6611 -13.1445 -19.709 -18.8564c-51.0508 -39.2373 -91.6162 -71.4258 -121.713 -96.5703c-9.71484 -8.19238 -17.6211 -14.5713 -23.7148 -19.1445c-6.09277 -4.5752 -14.3359 -9.19141 -24.7188 -13.8555
c-10.377 -4.67188 -20.1436 -6.99609 -29.2842 -6.99609h-0.28418h-0.288086c-9.14258 0 -18.9053 2.32422 -29.2861 6.99609c-10.3789 4.66406 -18.6172 9.28125 -24.7119 13.8555c-6.09473 4.57324 -14 10.9521 -23.7139 19.1445
c-30.0967 25.1445 -70.667 57.333 -121.716 96.5703c-7.04785 5.71289 -13.6201 12 -19.7148 18.8564v-219.427c0 -2.47656 0.904297 -4.61914 2.71387 -6.42871c1.80859 -1.81152 3.95215 -2.70801 6.42773 -2.70801h420.572c2.47266 0 4.61328 0.896484 6.42383 2.70801
c1.8125 1.80957 2.7168 3.95215 2.7168 6.42871zM475.425 340.001h0.000976562v3.85254s-0.0488281 1.24512 -0.137695 3.7207c-0.0947266 2.47949 -0.381836 3.66895 -0.859375 3.57324c-0.475586 -0.09375 -1 0.761719 -1.57129 2.57227
c-0.568359 1.80762 -1.42383 2.52441 -2.56738 2.13867c-1.14453 -0.37793 -2.47949 -0.139648 -4 0.71582h-420.572c-2.47656 0 -4.61816 -0.905273 -6.42773 -2.71582c-1.81055 -1.80762 -2.71484 -3.95215 -2.71484 -6.42578c0 -32 13.999 -59.0498 42 -81.1416
c36.7637 -28.957 74.9531 -59.1436 114.57 -90.5723c1.1416 -0.952148 4.47852 -3.75977 10.0029 -8.42383c5.52148 -4.67188 9.9043 -8.24707 13.1416 -10.7207c3.23828 -2.47852 7.47656 -5.47754 12.7119 -8.99902c5.23535 -3.52051 10.0469 -6.14453 14.4277 -7.85645
c4.38281 -1.70898 8.47461 -2.56445 12.2832 -2.56445h0.288086h0.28418c3.80762 0 7.90332 0.855469 12.2832 2.56445c4.38086 1.71191 9.18945 4.33594 14.4287 7.85645c5.23633 3.52051 9.46875 6.51953 12.7119 8.99902
c3.24023 2.47363 7.62305 6.04883 13.1406 10.7207c5.52637 4.66406 8.86328 7.47168 10.0039 8.42383c39.627 31.4277 77.8115 61.6152 114.578 90.5723c10.2793 8.1875 19.8545 19.1895 28.7119 32.998c8.85645 13.8076 13.2812 26.333 13.2812 37.5703v3.1416z" />
    <glyph glyph-name="007-linkedin-1" unicode="&#xf106;" 
d="M58.2666 448.502c35.2383 0 56.9209 -23.1357 57.5928 -53.543c0 -29.7363 -22.3545 -53.5312 -58.2754 -53.5312h-0.668945c-34.5664 0 -56.915 23.7949 -56.915 53.5312c0 30.4072 23.0352 53.543 58.2666 53.543zM58.2666 448.502zM6.08789 299.12h102.997v-309.871
h-102.997v309.871zM6.08789 299.12zM361.895 306.393c67.7598 0 118.574 -44.29 118.574 -139.469v-177.675h-102.988v165.771c0 41.6572 -14.9053 70.0732 -52.1758 70.0732c-28.4541 0 -45.3984 -19.1641 -52.8447 -37.6631
c-2.7207 -6.62402 -3.39258 -15.873 -3.39258 -25.1377v-173.044h-102.994v309.871h103v-44.9385s37.2578 52.2109 92.8213 52.2109zM361.895 306.393z" />
    <glyph glyph-name="045-search-2" unicode="&#xf12c;" 
d="M310 258c5.51953 0 10 -4.48047 10 -10s-4.48047 -10 -10 -10s-10 4.48047 -10 10s4.48047 10 10 10zM500.281 4.28125c7.55566 -7.5498 11.7188 -17.5947 11.7188 -28.2812s-4.16309 -20.7314 -11.7217 -28.2842c-7.55469 -7.55371 -17.5977 -11.7158 -28.2783 -11.7158
s-20.7236 4.16211 -28.2822 11.7188l-96.5674 96.5684c-0.00683594 0.00585938 -0.0117188 0.0107422 -0.0166016 0.015625l-36.8945 36.8955c-32.7529 -21.7432 -70.6836 -33.1982 -110.239 -33.1982c-110.28 0 -200 89.7197 -200 200s89.7197 200 200 200
s200 -89.7197 200 -200c0 -39.5547 -11.4541 -77.4854 -33.1992 -110.239zM305.536 102.273c15.4531 11.2158 28.9746 24.7383 40.1914 40.1914c22.4219 30.8682 34.2725 67.3604 34.2725 105.535c0 99.252 -80.748 180 -180 180s-180 -80.748 -180 -180
s80.748 -180 180 -180c38.1748 0 74.667 11.8506 105.534 34.2715c0.000976562 0.000976562 0.00195312 0.000976562 0.00195312 0.00195312zM326.516 93.207l28.3711 -28.3711c10.1836 8.62695 19.6494 18.0938 28.2773 28.2773l-28.3711 28.3711
c-8.46582 -10.3496 -17.9268 -19.8105 -28.2773 -28.2773zM486.139 -38.1387c3.78027 3.77734 5.86133 8.79688 5.86133 14.1387s-2.08105 10.3613 -5.85938 14.1348l-88.7979 88.7979c-8.68945 -10.127 -18.1494 -19.5859 -28.2764 -28.2764l88.7949 -88.7949
c3.7793 -3.78027 8.80078 -5.86133 14.1387 -5.86133s10.3594 2.08105 14.1387 5.86133zM200 408c88.2246 0 160 -71.7754 160 -160s-71.7754 -160 -160 -160s-160 71.7754 -160 160s71.7754 160 160 160zM200 108c77.1963 0 140 62.8037 140 140s-62.8037 140 -140 140
s-140 -62.8037 -140 -140s62.8037 -140 140 -140zM312.065 290.927c1.98047 -5.15527 -0.59375 -10.9404 -5.74805 -12.9219c-1.17969 -0.453125 -2.39258 -0.667969 -3.58398 -0.667969c-4.02051 0 -7.80957 2.44043 -9.33691 6.41602
c-14.7656 38.4287 -52.2979 64.2471 -93.3965 64.2471c-5.52246 0 -10 4.47754 -10 10s4.47754 10 10 10c24.7207 0 48.4785 -7.49023 68.7051 -21.6602c19.7559 -13.8389 34.749 -33.001 43.3604 -55.4131z" />
    <glyph glyph-name="033-placeholder-2" unicode="&#xf120;" 
d="M256 448c99.252 0 180 -80.748 180 -180c0 -32.5391 -8.7793 -64.4277 -25.3887 -92.2197l-139.243 -232.488c-2.6875 -4.48828 -7.51953 -7.25098 -12.75 -7.29199h-0.119141c-5.18555 0 -10.0078 2.67969 -12.7451 7.09082l-142.885 230.257
c-17.5801 28.3926 -26.8691 61.1182 -26.8691 94.6523c0 99.252 80.748 180 180 180zM384.866 191.182c13.8232 23.1299 21.2334 49.6973 21.2334 76.8184c0 82.71 -67.3896 150.2 -150.1 150.2s-150.2 -67.4902 -150.2 -150.2
c0 -27.9502 7.93457 -55.2139 22.5674 -78.8457l129.905 -209.34zM256 358c49.626 0 90 -40.374 90 -90c0 -48.7666 -39.0967 -90 -90 -90c-50.2832 0 -90 40.6914 -90 90c0 49.626 40.374 90 90 90zM256 207.8c33.7842 0 60.0996 27.5176 60.0996 60.2002
c0 33.084 -27.0156 60.2002 -60.0996 60.2002s-60.2002 -27.1162 -60.2002 -60.2002c0 -33.167 26.9434 -60.2002 60.2002 -60.2002z" />
    <glyph glyph-name="012-pinterest-2" unicode="&#xf10b;" 
d="M54.0234 149.688c-42.8867 28.0781 -63.0547 87.8477 -50.1836 148.727c15.2578 72.1562 72.7383 130.699 163.117 145.559c109.637 18.0312 218.488 -24.1719 246.535 -133.051c25.1641 -97.6875 -25.0586 -185.43 -100.348 -222.199
c-46.8984 -22.9023 -94.3125 -20.8125 -127.773 3.96484c-12.7109 -46.7695 -35.9023 -121.844 -75.6016 -147.652l-13.8906 -9.03516l-7.60547 14.7266c-24.0703 46.6289 0.644531 138.199 18.6875 205.066c5.96875 22.1172 13.3672 49.5312 13.0312 56.8008
c-10.3242 29.4688 -10.3516 56.4141 -0.0859375 82.3398c14.2656 36.043 47.2578 51.4961 75.8906 45.1641c25.6875 -5.67969 41.8906 -27.5469 40.3203 -54.4141c-1.76172 -30.1602 -16.6602 -71.75 -24.9062 -99.3633c-5.76562 -19.293 6.67188 -28.4961 12.2852 -31.5547
c15.0781 -8.22266 40.5312 -6.30078 60.7695 17.3477c14.6602 17.1289 23.9766 38.3828 29.3125 66.8867c7.43359 39.6914 -2.26562 72.0781 -28.0391 93.6602c-59.7461 50.0273 -188.41 29.1016 -200.055 -47.7812l-0.167969 -0.910156
c-8.51953 -39.543 3.71484 -72.0898 4.1875 -74.7891c-1.16406 -4.80859 0.0664062 -2.89453 -11.5547 -46.2148l-6.56641 -24.6445zM33.1797 292.211c-8.38672 -39.6797 -0.0976562 -78.2461 20.7734 -102.789c1.79297 6.87109 3.48438 13.5547 4.67578 18.7734
c-7.41016 27.8281 -8.32812 55.2734 -2.72266 81.6406c15.7461 100.855 171.5 130.613 248.883 65.8203c16.3984 -13.7344 28.1094 -30.75 34.8047 -50.5781c7.19922 -21.3164 8.36328 -45.4023 3.45703 -71.5977c-6.34375 -33.8828 -17.7852 -59.5781 -36.0039 -80.8672
c-29.5898 -34.5703 -70.5938 -39.0664 -97.9062 -24.1797c-24.3047 13.25 -34.7695 39.3398 -26.6641 66.4688c7.71875 25.8438 22.1875 66.6211 23.7031 92.5312c1.02344 17.5156 -11.4492 22.1875 -16.8594 23.3867c-14.9805 3.3125 -33.0586 -5.51172 -41.5352 -26.9219
c-7.56641 -19.125 -7.32031 -39.4336 0.753906 -62.0938c3.99219 -11.2031 -0.691406 -29.5977 -12.6289 -73.8281c-12.5039 -46.332 -32.0938 -118.938 -26.8242 -162.41c26.832 35.1445 43.5352 100.902 53.8633 139.637l7.82031 29.3594l18.5469 -24.0703
c28.4258 -36.8945 75.8047 -31.8477 110.668 -14.8242c56.832 27.7539 107.504 98.3516 84.4688 187.773c-24.9062 96.6953 -124.742 125.395 -212.633 110.941c-73.1836 -12.0352 -125.012 -57.707 -138.641 -122.172zM33.1797 292.211z" />
    <glyph glyph-name="035-settings-2" unicode="&#xf122;" 
d="M485.793 245.746c15.2939 -2.56738 26.418 -15.7227 26.2041 -31.2314v-45.0283c0 -15.5088 -11.124 -28.6641 -26.418 -31.2314l-35.9375 -5.98926c-3.63672 -11.9785 -8.55664 -23.6367 -14.4395 -34.8672l21.1777 -29.7334
c8.98438 -12.6211 7.4873 -29.8408 -3.42285 -40.751l-31.873 -31.8721c-5.98926 -5.99023 -13.9033 -9.30566 -22.3535 -9.30566v0c-6.63086 0 -13.0479 2.03223 -18.3965 5.88281l-29.626 21.1768c-11.124 -5.88184 -22.7822 -10.6953 -34.8682 -14.4385
l-6.09668 -35.9375c-2.56641 -15.2939 -15.7217 -26.418 -31.2305 -26.418h-45.1357c-15.5078 0 -28.6641 11.124 -31.2305 26.418l-5.99023 35.9375c-11.6582 3.63672 -22.9951 8.23535 -33.7979 13.9043l-30.0547 -21.3916
c-5.34766 -3.85059 -11.6582 -5.88184 -18.2891 -5.88184c-8.44922 0 -16.3643 3.31543 -22.3535 9.30469l-31.873 31.873c-11.0166 10.9092 -12.4062 28.1289 -3.42285 40.75l21.0703 29.3057c-5.98926 11.123 -10.9092 22.7812 -14.6523 34.7607l-36.3652 6.20312
c-15.2949 2.56738 -26.418 15.7227 -26.418 31.2314v45.0283c0 15.5088 11.123 28.6641 26.418 31.2305l35.5098 5.99023c3.63574 12.0859 8.3418 23.7441 14.2246 34.9746l-21.3906 30.0537c-8.98438 12.6211 -7.4873 29.8408 3.42188 40.751l31.9805 31.8721
c5.88184 5.99023 13.9033 9.30566 22.3535 9.30566c6.63086 0 13.0488 -2.03223 18.3965 -5.88281l29.4121 -21.1768c11.124 5.98926 22.7822 10.9092 34.7607 14.6523l6.2041 36.3652c2.56641 15.2949 15.7217 26.418 31.2305 26.418h45.0283
c15.5088 0 28.6641 -11.123 31.2314 -26.418l5.98926 -35.5098c12.5137 -3.74316 24.5996 -8.77051 36.1514 -14.8662l29.7334 21.1768c5.34766 3.85059 11.6582 5.88281 18.2891 5.88281c8.4502 0 16.3643 -3.31543 22.3545 -9.30566l31.8721 -31.8721
c11.0166 -10.9102 12.4072 -28.1299 3.42285 -40.75l-21.1768 -29.627c5.88184 -11.124 10.6953 -22.7812 14.4385 -34.8682zM483.333 169.486h0.106445v45.0283c0 1.39062 -0.962891 2.56738 -2.35254 2.78125l-44.9219 7.59375
c-5.56152 0.855469 -10.1602 5.02637 -11.5508 10.5879c-4.06445 15.7227 -10.2676 30.8037 -18.6104 44.8145c-2.8877 4.91992 -2.67383 11.124 0.641602 15.7227l26.418 37.1143c0.749023 1.17578 0.641602 2.67383 -0.321289 3.63574l-31.8721 31.873
c-0.749023 0.749023 -1.60449 0.855469 -2.03223 0.855469c-0.535156 0 -1.06934 -0.213867 -1.60449 -0.53418l-36.8994 -26.5254c-4.70605 -3.31543 -10.8027 -3.5293 -15.7227 -0.641602c-14.332 8.44922 -29.7334 14.7598 -45.8838 18.8242
c-5.5625 1.39062 -9.7334 5.98926 -10.6963 11.6582l-7.48633 44.6006c-0.213867 1.39062 -1.39062 2.35254 -2.78125 2.35254h-45.0283c-1.39062 0 -2.56641 -0.961914 -2.78027 -2.35254l-7.70117 -45.2422c-0.962891 -5.56152 -5.13379 -10.0537 -10.5889 -11.5518
c-15.7227 -4.06445 -30.8027 -10.4814 -44.707 -18.8242c-4.91992 -2.8877 -11.124 -2.67383 -15.8301 0.641602l-36.8994 26.3115c-0.427734 0.321289 -0.962891 0.535156 -1.60449 0.535156c-0.53418 0 -1.2832 -0.107422 -2.03223 -0.856445l-31.8721 -31.8721
c-0.962891 -0.962891 -1.07031 -2.56738 -0.321289 -3.63672l26.6318 -37.4346c3.31543 -4.59863 3.63672 -10.6953 0.749023 -15.6152c-8.23535 -14.0117 -14.332 -29.1992 -18.29 -44.9219c-1.38965 -5.56152 -5.98926 -9.73242 -11.6572 -10.6953l-44.6006 -7.4873
c-1.39062 -0.213867 -2.35352 -1.38965 -2.35352 -2.78027v-45.0283c0 -1.39062 0.962891 -2.56738 2.35352 -2.78125l45.2422 -7.7002c5.56152 -0.962891 10.0537 -5.13379 11.5508 -10.5889c4.06445 -15.7227 10.4814 -30.8037 18.8242 -44.708
c2.8877 -4.91992 2.67383 -11.123 -0.641602 -15.8291l-26.3115 -36.8994c-0.748047 -1.17676 -0.641602 -2.67383 0.321289 -3.63672l31.873 -31.873c0.748047 -0.748047 1.60449 -0.855469 2.03223 -0.855469c0.53418 0 1.06934 0.213867 1.60352 0.535156
l37.4346 26.6318c2.45996 1.81836 5.45508 2.67383 8.34277 2.67383c2.45996 0 5.02734 -0.641602 7.27344 -1.92578c13.7969 -7.91406 28.5566 -14.0107 43.8516 -17.9678c5.45508 -1.39062 9.62598 -5.88281 10.5889 -11.5518l7.48633 -44.9209
c0.213867 -1.39062 1.39062 -2.35352 2.78125 -2.35352h45.0283c1.39062 0 2.56641 0.962891 2.78027 2.35352l7.59473 44.9209c0.855469 5.56152 5.02637 10.1611 10.5879 11.5518c15.7227 4.06445 30.8037 10.2676 44.8145 18.6104
c4.91992 2.8877 11.124 2.67383 15.7227 -0.642578l37.1133 -26.418c0.428711 -0.320312 0.962891 -0.53418 1.60449 -0.53418c0.535156 0 1.28418 0.106445 2.03223 0.855469l31.873 31.873c0.962891 0.961914 1.06934 2.56641 0.321289 3.63574l-26.4189 37.2207
c-3.31543 4.70605 -3.5293 10.8027 -0.641602 15.7227c8.34277 14.0117 14.5459 29.0918 18.6104 44.8145c1.39062 5.45508 5.88281 9.62598 11.5518 10.5889l44.9209 7.48633c1.39062 0.213867 2.35352 1.39062 2.35352 2.78125zM256.052 302.539
c60.9648 0 110.485 -49.5205 110.485 -110.485s-49.5205 -110.485 -110.485 -110.485s-110.485 49.5205 -110.485 110.485s49.5205 110.485 110.485 110.485zM256.052 110.447c45.0283 0 81.6074 36.5781 81.6074 81.6064s-36.5791 81.6074 -81.6074 81.6074
s-81.6074 -36.5791 -81.6074 -81.6074s36.5791 -81.6064 81.6074 -81.6064z" />
    <glyph glyph-name="016-vimeo-2" unicode="&#xf10f;" 
d="M24.4854 300.306l-24.4854 30.6885c28.6924 23.4756 43.3701 36.665 111.77 90.8105c15.2598 12.0938 31.8584 18.4932 47.9922 18.4932c24.0938 0 44.3281 -14.2588 51.5537 -36.3252c18.9268 -57.8789 31.5967 -163.683 49.3145 -208.368
c10.6064 -26.7588 19.6123 -26.7588 23.002 -26.7588c3.73047 0 7.94141 1.56543 11.2568 4.1875c26.9902 21.3271 69.3066 83.209 72.4619 124.994c0.978516 12.9863 -1.73438 22.7119 -8.29004 29.7266c-6.42285 6.8877 -14.8496 10.2305 -25.7686 10.2305
c-3.49512 0 -7.2334 -0.329102 -11.4287 -1.00195l-26.8613 -4.30176c8.91602 19.1709 13.2441 37.1904 32.959 63.0449c23.9961 31.4521 64.7393 51.7734 103.805 51.7734c45.5146 0 78.1172 -27.4873 81.0215 -77.5967
c6.01562 -103.805 -115.754 -250.435 -194.666 -318.216c-27.5186 -23.6357 -57.7295 -37.1895 -82.8887 -37.1895c-18.9307 0 -34.9229 7.60449 -47.5264 22.6025c-26.4697 31.5537 -41.416 88.6416 -55.874 143.855c-12.8184 48.9941 -26.0508 99.5693 -47.1904 130.932
c-7.65918 11.3779 -14.4385 11.3779 -16.6689 11.3779c-8.43848 0 -18.9863 -6.53711 -30.8965 -14.4307c-17.2559 -11.6875 -11.3027 -7.65625 -12.5908 -8.52832zM130.431 398.246c-17.2803 -13.6787 -36.7637 -29.1738 -56.5947 -45.3066
c10.7705 -1.40918 24.2266 -7.16992 35.7334 -24.2627c23.9922 -35.5967 37.8828 -88.6885 51.3154 -140.035c13.6357 -52.0742 27.7139 -105.847 49.835 -132.215c6.90039 -8.20801 14.4619 -11.875 24.5127 -11.875c17.5508 0 41.8086 11.4717 63.3076 29.9336
c71.3311 61.2686 189.577 201.647 184.243 293.683c-2.36035 40.7285 -29.0459 49.2803 -51.0176 49.2803c-30.0322 0 -61.3975 -15.6826 -79.9062 -39.9492c-2.60254 -3.41309 -5.01367 -6.83789 -7.24512 -10.2979c14.3604 -2.1875 26.8027 -8.62598 36.415 -18.9424
c12.4268 -13.292 17.9102 -30.9551 16.29 -52.4893c-3.92188 -52 -52.251 -121.39 -83.793 -146.313c-8.57129 -6.77539 -19.4678 -10.6611 -29.8945 -10.6611c-32.8057 0 -46.4541 34.418 -50.9395 45.7334c-17.5264 44.1992 -33.624 160.211 -49.9365 210.098
c-3.15527 9.62891 -11.9648 15.6162 -22.9941 15.6162c-9.28809 0 -19.4287 -4.14844 -29.3311 -11.9961zM130.431 398.246z" />
    <glyph glyph-name="047-tag-2" unicode="&#xf12e;" 
d="M505.241 445.5c3.33691 -3.33691 3.33691 -8.73047 0 -12.0664l-31.6338 -31.6348v-207.128l-243.217 -249.787c-5.93066 -5.92285 -13.6709 -8.88379 -21.4111 -8.88379c-7.70605 0 -15.3945 2.93555 -21.2568 8.79785l-174.649 174.649
c-5.68359 5.68359 -8.81543 13.2529 -8.81543 21.291c0 8.03906 3.13184 15.6084 8.81543 21.292l249.779 251.835h198.688l31.6338 31.6348c3.33691 3.33594 8.72949 3.33594 12.0664 0zM456.54 201.601v183.131l-41.2432 -41.2422
c4.47168 -6.75098 7.1084 -14.8145 7.1084 -23.4932c0 -23.5273 -19.1406 -42.668 -42.668 -42.668s-42.668 19.1406 -42.668 42.668c0 23.5264 19.1406 42.668 42.668 42.668c8.67871 0 16.7432 -2.63672 23.4932 -7.1084l41.2432 41.2422h-174.504l-244.804 -246.809
c-5.1123 -5.1123 -5.1123 -13.3896 -0.0263672 -18.4756l174.649 -174.649c5.08594 -5.08594 13.3633 -5.08594 18.4492 0zM405.338 319.996c0 3.94238 -0.963867 7.62891 -2.56836 10.9658l-16.999 -16.999c-1.66406 -1.66406 -3.84863 -2.50098 -6.0332 -2.50098
s-4.36914 0.836914 -6.0332 2.50098c-3.33691 3.33594 -3.33691 8.72949 0 12.0664l16.999 16.999c-3.33691 1.5957 -7.02344 2.56836 -10.9658 2.56836c-14.1143 0 -25.6006 -11.4863 -25.6006 -25.6006c0 -14.1152 11.4863 -25.6016 25.6006 -25.6016
c14.1152 0 25.6006 11.4863 25.6006 25.6016z" />
    <glyph glyph-name="023-anchor-fm" unicode="&#xf116;" 
d="M224 208c8.83203 0 16 -7.16797 16 -16s-7.16797 -16 -16 -16h-52.4805c-5.06348 -8.77051 -17.3926 -15.9385 -27.5195 -16c-17.6641 0 -32 14.3359 -32 32s14.3359 32 32 32c10.127 -0.0615234 22.4561 -7.22949 27.5195 -16h52.4805zM264 122.72
c-2.00293 -1.35449 -5.58691 -2.57324 -8 -2.71973c-5.06348 0.0302734 -11.2285 3.61426 -13.7598 8c-1.33105 2.1416 -2.41113 5.9248 -2.41113 8.44629c0 5.17188 3.66016 11.4229 8.1709 13.9541c13.2773 7.64258 24.0537 26.2793 24.0537 41.5996
s-10.7764 33.957 -24.0537 41.5996c-4.09375 2.60254 -7.41602 8.65234 -7.41602 13.5029c0 8.83203 7.16797 16 16 16c2.16992 0 5.49316 -0.816406 7.41602 -1.82227c22.0781 -12.749 39.9961 -43.7861 39.9961 -69.2803s-17.918 -56.5312 -39.9961 -69.2803z
M278.88 76.3203c-1.80664 -0.838867 -4.88867 -1.55566 -6.87988 -1.60059c-0.0693359 -0.000976562 -0.181641 -0.00195312 -0.250977 -0.00195312c-8.83203 0 -16 7.16797 -16 16c0 5.68359 4.19824 12.207 9.37109 14.5625
c30.2617 14.3691 54.8213 53.2197 54.8213 86.7197s-24.5596 72.3506 -54.8213 86.7197c-5.05176 2.40039 -9.15137 8.8877 -9.15137 14.4805c0 8.84863 7.18164 16.0312 16.0312 16.0312c1.99512 0 5.07812 -0.695312 6.87988 -1.55176
c40.4111 -19.1406 73.208 -70.9648 73.208 -115.68s-32.7969 -96.5391 -73.208 -115.68zM294.4 353.28c58.2568 -25.4521 105.538 -97.7061 105.538 -161.28s-47.2812 -135.828 -105.538 -161.28c-1.68359 -0.767578 -4.55078 -1.41211 -6.40039 -1.43945h-0.0556641
c-5.78223 0 -12.3516 4.30078 -14.6641 9.59961c-0.744141 1.69629 -1.34766 4.5752 -1.34766 6.42676c0 5.81055 4.33105 12.3936 9.66699 14.6934c47.7207 20.8057 86.4502 79.9414 86.4502 132s-38.7295 111.194 -86.4502 132
c-5.72559 2.15137 -10.3721 8.86133 -10.3721 14.9775c0 8.83203 7.16797 16 16 16c2.09082 0 5.30371 -0.760742 7.17285 -1.69727z" />
    <glyph glyph-name="044-search-1" unicode="&#xf12b;" 
d="M495.643 -18.3506c10.3086 -10.7227 9.9668 -27.8174 -0.746094 -38.127c-5.04199 -4.85352 -11.6846 -7.52246 -18.6855 -7.52246c-7.39746 0 -14.2998 2.93945 -19.4316 8.26855l-122.783 127.699c-34.8633 -24.501 -75.6416 -37.4072 -118.433 -37.4072
c-113.983 0 -206.72 92.7363 -206.72 206.72s92.7363 206.72 206.72 206.72s206.72 -92.7363 206.72 -206.72c0 -48.7861 -17.166 -95.6484 -48.498 -132.894zM215.563 394.073c-84.252 0 -152.793 -68.541 -152.793 -152.793s68.541 -152.793 152.793 -152.793
s152.793 68.541 152.793 152.793s-68.541 152.793 -152.793 152.793z" />
    <glyph glyph-name="008-linkedin-2" unicode="&#xf107;" 
d="M3.42871 281.987h124.556v-345.987h-124.556v345.987zM100.306 -36.3213h-0.000976562v290.629h-69.1963v-290.629h69.1973zM64.3887 448c34.1406 0 58.5215 -23.3271 59.3057 -56.7227c0.0136719 -15.9756 -5.89355 -30.3418 -16.6104 -40.7754
c-11.1357 -10.8262 -26.2871 -16.5557 -43.8164 -16.5557c-33.4902 0 -58.7363 24.5029 -58.7363 57.0068c0 33.0576 25.1787 57.0469 59.8574 57.0469zM87.7842 370.342c5.31055 5.17578 8.23047 12.4883 8.23047 20.5977
c-0.418945 18.002 -12.542 29.3818 -31.626 29.3818c-19.2451 0 -32.1787 -11.7979 -32.1787 -29.3682c0 -17.2725 12.7715 -29.3281 31.0566 -29.3281c10.1777 0 18.6514 3.01367 24.5176 8.7168zM379.248 281.926c62.4531 0 129.323 -47.1934 129.323 -150.814v-195.111
h-107.256v176.704c0 30.2324 -23.7129 55.7773 -50.7568 55.7773c-24.6377 0 -40.3594 0 -51.6982 -24.4639c-1.6084 -3.45996 -4.80176 -18.8525 -4.80176 -26.2451v-181.772h-110.716v345.987h112.669l2.33496 -25.0342c16.1904 12.8262 41.707 24.9727 80.9014 24.9727z
M480.892 -36.3213v167.433c0 84.6035 -52.5166 123.126 -101.644 123.126c-51.168 0 -71.4785 -24.4014 -77.9922 -34.8896l-4.05469 -6.55762h-22.043l-4.17578 41.5176h-59.96v-290.629h55.3574v154.094c0 9.9873 3.84473 29.4492 7.77832 37.9092
c18.7715 40.4785 49.6367 40.4785 76.4375 40.4785c42.0459 0 78.3984 -38.2207 78.3984 -83.4561v-149.025h51.8975z" />
    <glyph glyph-name="053-arrow-up" unicode="&#xf134;" 
d="M430.644 280.896c7.22168 -7.22168 7.22168 -18.5908 0 -25.8125c-6.97754 -6.97754 -18.5908 -6.97754 -25.5518 0l-130.884 130.883v-431.912c0 -10.0674 -8.00195 -18.0703 -18.0693 -18.0703c-10.0684 0 -18.3311 8.00293 -18.3311 18.0703v431.929
l-130.622 -130.883c-7.22168 -6.97754 -18.8516 -6.97754 -25.8125 0c-7.22168 7.22168 -7.22168 18.5908 0 25.8115l161.867 161.868c6.97754 6.97754 18.5908 6.97754 25.5518 0z" />
    <glyph glyph-name="017-flickr-1" unicode="&#xf110;" 
d="M288 192c0 61.8555 50.1445 112 112 112s112 -50.1445 112 -112s-50.1445 -112 -112 -112s-112 50.1445 -112 112zM0 192c0 61.8555 50.1445 112 112 112s112 -50.1445 112 -112s-50.1445 -112 -112 -112s-112 50.1445 -112 112z" />
    <glyph glyph-name="020-spotify-2" unicode="&#xf113;" 
d="M377.003 91.3496c13.2266 -8.72559 7.01855 -29.3545 -8.81055 -29.376c-16.5547 0 -77.4619 69.0342 -241.558 30.8906c-20.8213 -4.67188 -27.7334 26.4102 -7.25391 31.168c101.995 23.7646 188.673 12.7354 257.622 -32.6826zM112.149 172.886
c-20.6504 -4.84277 -27.9258 26.2822 -7.36035 31.125c99.1572 23.4453 212.054 9.66406 294.721 -36.0322c18.4746 -10.1973 2.98633 -38.208 -15.4883 -27.9893c-75.9473 41.9844 -180.117 54.6133 -271.872 32.8965zM100.032 256.128
c-20.1172 -6.20801 -29.6748 24.4053 -9.36523 30.6133c106.453 32.5547 250.709 15.04 335.615 -40.7891c17.707 -11.627 -0.0205078 -38.2725 -17.5781 -26.7305c-76.459 50.2607 -212.032 66.4746 -308.672 36.9062zM256 -64c-141.163 0 -256 114.837 -256 256
s114.837 256 256 256s256 -114.837 256 -256s-114.837 -256 -256 -256zM256 416c-123.52 0 -224 -100.48 -224 -224s100.48 -224 224 -224s224 100.48 224 224s-100.48 224 -224 224z" />
    <glyph glyph-name="054-arrow-right" unicode="&#xf135;" 
d="M344.774 366.591l161.812 -161.827c7.21875 -6.95898 7.21875 -18.5684 0 -25.543l-161.812 -161.812c-6.95801 -7.21875 -18.584 -7.21875 -25.8027 0c-6.97559 6.95898 -6.97559 18.584 0 25.8037l130.837 130.593h-431.745
c-10.0645 0 -18.0635 8.25977 -18.0635 18.3242s7.99902 18.0645 18.0635 18.0801h431.745l-130.837 130.838c-6.97559 6.95898 -6.97559 18.5674 0 25.543c7.21875 7.21875 18.8281 7.21875 25.8027 0z" />
    <glyph glyph-name="050-folder" unicode="&#xf131;" 
d="M119.467 247.467h392.533v-8.5332l-87.2617 -240.529c-2.35547 -8.82324 -11.042 -15.4707 -20.9072 -15.4707h-381.943c-5.22168 0 -4.82129 2.26953 -4.82129 8.5332v8.5332l97.75 243.908c0.5625 2.09082 2.48242 3.55859 4.65039 3.55859zM108.638 264.533
c-9.86426 0 -18.5518 -6.64746 -20.8984 -15.4541l-87.7393 -227.984v356.659c0 12.8506 10.4619 23.3125 23.3135 23.3125h160.281l42.667 -59.7334h211.226c12.8506 0 23.3125 -10.4531 23.3125 -23.3125v-53.4873h-8.5332h-343.629z" />
    <glyph glyph-name="025-phone-2" unicode="&#xf118;" 
d="M104.33 107.657c-41.5879 49.9688 -69.5967 96.7559 -88.1631 147.149c-12.0938 32.5703 -16.7617 59.5176 -14.7461 84.873c1.69727 20.2637 9.86621 37.7695 24.2949 52.1973l39.6787 39.6787c11.3516 10.8213 24.2949 16.4443 37.7686 16.4443
c13.5791 0 26.417 -5.62305 37.3438 -16.3379c7.21484 -6.68359 14.5352 -14.1104 21.5371 -21.3252c3.60742 -3.71289 7.1084 -7.32031 10.8213 -11.0332l31.6152 -31.6152c11.5645 -11.458 17.6113 -24.7197 17.6113 -38.1934s-6.15332 -26.7354 -17.6113 -38.1934
c-3.28906 -3.28809 -6.57715 -6.57715 -9.76074 -9.86621c-9.01758 -9.23047 -18.3535 -18.6719 -28.3262 -27.6904c7.1084 -16.4434 17.293 -32.5693 32.4639 -51.7725c30.0244 -36.8135 61.4277 -65.459 96.0137 -87.4199
c3.50098 -2.22754 7.42676 -4.24316 11.6699 -6.36523c3.39551 -1.69727 7.00195 -3.50098 10.5029 -5.5166l37.9814 37.9805c11.1396 11.1396 24.1885 17.0811 37.7686 17.0811s26.5234 -5.94141 37.3447 -17.1875l63.7607 -63.7607
c22.8096 -22.8096 22.8096 -52.7275 0.212891 -76.2803c-4.88086 -5.09277 -9.97266 -10.0791 -14.959 -14.8525c-7.32129 -7.1084 -14.3232 -13.792 -20.4766 -21.2188c-0.105469 -0.211914 -0.318359 -0.424805 -0.423828 -0.530273
c-17.293 -18.7783 -38.5117 -27.9023 -64.9287 -27.9023c-2.43945 0 -4.77441 0.106445 -7.21387 0.211914c-39.3604 2.54688 -74.6885 17.3994 -101.105 29.918c-69.3848 33.6318 -130.175 81.1602 -180.675 141.527zM27.3066 337.452
c-1.69727 -21.3242 2.44043 -44.7705 13.3682 -73.9463c17.6113 -47.5293 44.2402 -91.876 83.8125 -139.511c48.0596 -57.502 105.986 -102.804 171.976 -134.737c24.2949 -11.5635 56.6523 -25.1436 91.4512 -27.3711
c1.80371 -0.106445 3.71289 -0.212891 5.5166 -0.212891c18.7783 0 33.3125 6.15332 45.5137 19.3096c7.00195 8.38086 14.7461 15.8076 22.1729 23.0215c4.98633 4.77441 9.6543 9.33594 14.1104 14.1104c12.9434 13.4736 13.0488 27.2656 0.318359 39.9971
l-63.9736 63.8672c-4.1377 4.45605 -10.7148 9.44238 -18.7783 9.44238c-6.57812 0 -13.2617 -3.28906 -19.415 -9.44238l-39.6777 -39.6787c-1.80371 -1.80371 -7.32031 -7.21387 -15.8086 -7.21387c-3.39453 0 -6.78906 0.848633 -10.29 2.65234
c-0.424805 0.211914 -0.743164 0.423828 -1.16699 0.635742c-3.50195 2.22852 -7.42676 4.24414 -11.6709 6.36621c-4.56152 2.33398 -9.44141 4.66797 -14.0039 7.63867c-36.9199 23.4463 -70.4453 53.8945 -102.272 93.1484
c-17.7178 22.2793 -29.0693 40.9512 -37.2383 60.5781c-0.106445 0.318359 -0.211914 0.53125 -0.318359 0.849609c-2.12207 6.36523 -3.50098 14.7461 5.30469 23.5518c0.211914 0.212891 0.318359 0.318359 0.530273 0.530273
c10.1846 9.01855 19.415 18.4609 29.2812 28.4336c3.28906 3.28809 6.57812 6.68359 9.86719 9.97168c6.57715 6.57812 9.97266 13.2617 9.97266 19.8398c0 6.57715 -3.39551 13.2617 -9.97266 19.8389l-31.6162 31.6152c-3.71289 3.81934 -7.42578 7.5332 -11.0332 11.2461
c-7.21387 7.32031 -13.8984 14.2168 -21.0059 20.7939c-6.04785 6.15332 -12.625 9.23047 -19.0967 9.23047c-6.57812 0 -13.3682 -3.07715 -19.5215 -9.01855l-39.4658 -39.4658c-10.1846 -10.1846 -15.5957 -21.9609 -16.8691 -36.0713z" />
    <glyph glyph-name="040-clock-1" unicode="&#xf127;" 
d="M255.997 448c141.379 0 256 -114.612 256 -255.993s-114.623 -256.007 -256.002 -256.007c-141.38 0 -255.993 114.631 -255.993 256.007s114.613 255.993 255.995 255.993zM273.675 160.703c0 0.107422 0.0302734 0.212891 0.0302734 0.319336h-0.00292969v180.738
c0 9.77734 -7.92773 17.7051 -17.7051 17.7051c-9.77832 0 -17.7051 -7.92773 -17.7051 -17.7051v-152.808l-72.9033 34.3799c-8.84375 4.16895 -19.3965 0.375 -23.5654 -8.46387c-4.16895 -8.84375 -0.380859 -19.3965 8.46387 -23.5654l98.1592 -46.3008
c0.0976562 -0.0439453 0.199219 -0.0527344 0.296875 -0.102539c0.849609 -0.379883 1.74121 -0.655273 2.65234 -0.902344c0.305664 -0.0839844 0.605469 -0.216797 0.911133 -0.283203c0.978516 -0.208008 1.99512 -0.289062 3.02246 -0.328125
c0.216797 -0.0078125 0.438477 -0.0751953 0.655273 -0.0751953c1.07227 0 2.12988 0.131836 3.1748 0.323242c0.296875 0.0527344 0.584961 0.116211 0.876953 0.185547c0.814453 0.189453 1.60254 0.438477 2.38086 0.739258
c0.203125 0.0800781 0.411133 0.132812 0.611328 0.22168c0.920898 0.399414 1.80762 0.885742 2.65234 1.43848c0.212891 0.141602 0.407227 0.295898 0.610352 0.442383c0.65918 0.469727 1.27832 0.983398 1.86719 1.54492
c0.196289 0.180664 0.385742 0.352539 0.572266 0.543945c0.668945 0.698242 1.30566 1.44238 1.86328 2.26172c0.03125 0.0439453 0.0712891 0.0888672 0.102539 0.132812c0.489258 0.730469 0.936523 1.50195 1.32227 2.32422
c0.0449219 0.102539 0.0615234 0.211914 0.111328 0.314453c0.260742 0.588867 0.447266 1.21191 0.646484 1.83594c0.167969 0.517578 0.364258 1.02734 0.478516 1.54492c0.114258 0.49707 0.144531 1.01367 0.210938 1.51855
c0.09375 0.674805 0.195312 1.34668 0.208984 2.01953z" />
    <glyph glyph-name="004-instagram-2" unicode="&#xf103;" 
d="M373.405 448c76.4219 0 138.594 -62.1719 138.594 -138.594v-234.815c0 -76.418 -62.1719 -138.59 -138.59 -138.59h-234.815c-76.4219 0 -138.594 62.1719 -138.594 138.59v234.815c0 76.4219 62.1719 138.594 138.594 138.594h234.812zM481.983 74.5908v234.815
c0 59.8711 -48.707 108.578 -108.574 108.578h-234.815c-59.8711 0 -108.578 -48.707 -108.578 -108.578v-234.815c0 -59.8672 48.707 -108.574 108.578 -108.574h234.812c59.8711 0 108.578 48.707 108.578 108.574zM481.983 74.5908zM256 331.996
c77.1943 0 139.995 -62.8008 139.995 -139.996c0 -77.1943 -62.8008 -139.995 -139.995 -139.995c-77.1953 0 -139.996 62.8008 -139.996 139.995c0 77.1953 62.8008 139.996 139.996 139.996zM256 82.0205c60.6436 0 109.979 49.3359 109.979 109.979
c0 60.6406 -49.3359 109.98 -109.979 109.98c-60.6406 0 -109.98 -49.3398 -109.98 -109.98c0 -60.6436 49.3398 -109.979 109.98 -109.979zM256 82.0205zM399.343 381.715c22.8125 0 41.3711 -18.5547 41.3711 -41.3672s-18.5586 -41.3711 -41.3711 -41.3711
s-41.3672 18.5586 -41.3672 41.3711c0 22.8086 18.5547 41.3672 41.3672 41.3672zM399.343 328.996c6.26172 0 11.3555 5.09375 11.3555 11.3516c0 6.26172 -5.09375 11.3516 -11.3555 11.3516c-6.25781 0 -11.3516 -5.08984 -11.3516 -11.3516
c0 -6.25781 5.09375 -11.3516 11.3516 -11.3516zM399.343 328.996z" />
    <glyph glyph-name="026-phone-call-1" unicode="&#xf119;" 
d="M389.257 109.302c20.3496 -20.2432 40.6992 -40.4863 60.9424 -60.8359c16.9404 -17.0469 16.834 -37.9287 -0.212891 -55.1885c-11.5068 -11.6133 -23.7598 -22.6934 -34.627 -34.8398c-15.874 -17.792 -35.6914 -23.5459 -58.4912 -22.2666
c-33.1348 1.81055 -63.6064 12.7842 -93.0117 27.0615c-65.3105 31.749 -121.139 75.751 -167.911 131.366c-34.626 41.126 -63.1797 85.9805 -81.9307 136.481c-9.16309 24.3975 -15.6621 49.4355 -13.6377 75.9648c1.27832 16.3008 7.35156 30.2578 19.3906 41.6572
c12.998 12.3594 25.251 25.251 38.0361 37.8232c16.6201 16.4072 37.5029 16.4072 54.2295 0.106445c10.335 -10.1221 20.4561 -20.4561 30.6846 -30.6846c9.9082 -10.0146 19.8164 -19.8164 29.7256 -29.832c17.4727 -17.5791 17.4727 -38.0352 0.106445 -55.5078
c-12.4658 -12.5723 -24.8242 -25.1445 -37.5029 -37.3965c-3.30273 -3.30273 -3.62305 -5.9668 -1.91797 -10.0156c8.41699 -20.0293 20.4561 -37.8223 33.9873 -54.4424c27.2744 -33.4551 58.0654 -63.1797 94.8223 -86.2998
c7.88477 -4.90137 16.6211 -8.52344 24.8242 -12.998c4.15527 -2.34375 7.03223 -1.59863 10.4414 1.91797c12.4658 12.7852 25.1445 25.3564 37.8223 37.9287c16.6211 16.5137 37.5029 16.5137 54.2305 0zM368.907 194.216
c-4.79395 27.9141 -17.8994 53.2715 -37.9287 73.3018c-21.2021 21.2012 -48.0508 34.5195 -77.5635 38.6748l5.54004 39.5273c38.1426 -5.32715 72.7686 -22.5869 100.15 -49.9688c25.8896 -25.9961 42.9365 -58.7051 49.1162 -94.8223zM430.382 365.11
c43.043 -43.1504 71.2773 -97.4863 81.6113 -157.363l-39.3135 -6.71191c-8.84277 51.6729 -33.2412 98.6582 -70.4248 135.841c-39.207 39.1016 -88.8564 63.9258 -143.619 71.5967l5.54004 39.5273c63.3926 -8.84277 120.819 -37.5029 166.206 -82.8896z" />
    <glyph glyph-name="051-folder-1" unicode="&#xf132;" 
d="M490.581 264.533c12.4082 0 21.4189 -10.667 21.4189 -25.3613v-1.50977l-87.2617 -239.258c-2.35547 -8.82324 -11.042 -15.4707 -20.9072 -15.4707h-381.943c-6.86914 0 -13.2012 3.12305 -17.3818 8.58398c-3.00391 3.93457 -4.49707 8.63574 -4.45508 13.4404
h-0.0507812v372.796c0 12.8506 10.4619 23.3125 23.3135 23.3125h160.281l42.667 -59.7334h211.226c12.8506 0 23.3125 -10.4531 23.3125 -23.3125v-53.4873h29.7812zM17.0664 377.754v-321.426l70.6729 192.743c2.05664 7.70508 8.96094 13.7637 17.2637 15.1553
c1.18555 0.204102 2.40625 0.306641 3.63477 0.306641h335.087v53.4873c0 3.44727 -2.79883 6.24609 -6.24609 6.24609h-220.007l-42.666 59.7334h-151.492c-3.43945 0 -6.24707 -2.79883 -6.24707 -6.24609zM408.482 3.55859l86.3828 236.919
c-0.213867 2.33008 -1.04102 6.98926 -4.28418 6.98926h-29.7812h-352.171c-2.16699 0 -4.08691 -1.46777 -4.65039 -3.55859l-86.9629 -238.532c-0.31543 -1.29688 0.511719 -2.78223 1.0498 -3.48145c0.537109 -0.708008 1.74902 -1.89453 3.82227 -1.89453h381.943
c2.16797 0 4.08789 1.46777 4.65137 3.55859z" />
    <glyph glyph-name="038-comment-1" unicode="&#xf125;" 
d="M256 435.2c141.158 0 256 -103.355 256 -230.4c0 -127.044 -114.842 -230.399 -256 -230.399c-36.3779 0 -71.501 6.74121 -104.474 20.0439c-58.0693 -33.5186 -138.351 -45.0723 -141.807 -45.5586c-0.401367 -0.0605469 -0.793945 -0.0859375 -1.18652 -0.0859375
c-3.2002 0 -6.18652 1.80078 -7.63672 4.72754c-1.63867 3.27734 -0.990234 7.24512 1.60352 9.83887c19.627 19.6182 33.1436 61.0303 38.1865 116.813c-26.6406 37.1963 -40.6865 80.2129 -40.6865 124.62c0 127.045 114.842 230.4 256 230.4zM136.533 170.667
c18.8242 0 34.1338 15.3086 34.1338 34.1328c0 18.8252 -15.3096 34.1338 -34.1338 34.1338s-34.1328 -15.3086 -34.1328 -34.1338c0 -18.8242 15.3086 -34.1328 34.1328 -34.1328zM256 170.667c18.8242 0 34.1338 15.3086 34.1338 34.1328
c0 18.8252 -15.3096 34.1338 -34.1338 34.1338s-34.1338 -15.3086 -34.1338 -34.1338c0 -18.8242 15.3096 -34.1328 34.1338 -34.1328zM375.467 170.667c18.8242 0 34.1328 15.3086 34.1328 34.1328c0 18.8252 -15.3086 34.1338 -34.1328 34.1338
s-34.1338 -15.3086 -34.1338 -34.1338c0 -18.8242 15.3096 -34.1328 34.1338 -34.1328z" />
    <glyph glyph-name="013-whatsapp-1" unicode="&#xf10c;" 
d="M256.064 448c141.151 0 255.936 -114.848 255.936 -256s-114.784 -256 -255.936 -256c-52.0645 0 -100.353 15.4883 -140.832 42.3037l-98.4004 -31.4561l31.9043 95.1045c-30.6885 42.1436 -48.7363 94.0479 -48.7363 150.048c0 141.184 114.784 256 255.936 256
h0.128906zM405.024 86.4961c6.17578 17.4717 6.17578 32.3516 4.38379 35.5195c-1.82422 3.16797 -6.78418 4.95996 -14.3047 8.73633c-7.51953 3.74414 -44.0957 21.8242 -51.0078 24.2236c-6.78418 2.56055 -13.248 1.66406 -18.3682 -5.56738
c-7.19922 -10.0801 -14.2715 -20.3203 -20 -26.4961c-4.51172 -4.7998 -11.8711 -5.4082 -18.0479 -2.84766c-8.28809 3.45508 -31.4561 11.584 -60.0312 37.0234c-22.1445 19.7119 -37.1846 44.2559 -41.5361 51.6162c-4.35254 7.51953 -0.448242 11.8721 3.00781 15.9355
c3.77637 4.67188 7.36035 8 11.1357 12.3525c3.77637 4.35156 5.8877 6.62402 8.28809 11.7441c2.55957 4.95996 0.736328 10.0801 -1.08789 13.8555c-1.79199 3.77637 -16.832 40.5117 -23.0078 55.3926c-4.95996 11.8721 -8.73633 12.3193 -16.2559 12.6396
c-2.56055 0.12793 -5.4082 0.288086 -8.57617 0.288086c-9.79199 0 -20 -2.87988 -26.1758 -9.18457c-7.52051 -7.67969 -26.1768 -25.5674 -26.1768 -62.3037c0 -36.7354 26.7842 -72.2559 30.4004 -77.2158c3.77637 -4.95996 52.2236 -81.4082 127.456 -112.576
c58.8154 -24.3838 76.2881 -22.1123 89.6641 -19.2637c19.5518 4.22363 44.0635 18.6875 50.2402 36.1279z" />
    <glyph glyph-name="036-calendar-1" unicode="&#xf123;" 
d="M187.733 21.333v59.7334h59.7334v-59.7334h-59.7334zM187.733 174.934v59.7334h59.7334v-59.7334h-59.7334zM187.733 98.1338v59.7324h59.7334v-59.7324h-59.7334zM110.934 98.1338v59.7324h59.7334v-59.7324h-59.7334zM110.934 174.934v59.7334h59.7334v-59.7334
h-59.7334zM110.934 21.333v59.7334h59.7334v-59.7334h-59.7334zM341.333 174.934v59.7334h59.7334v-59.7334h-59.7334zM486.4 413.866c4.71875 0 8.5332 -3.81348 8.5332 -8.5332v-93.8662v-366.934c0 -4.71875 -3.81445 -8.5332 -8.5332 -8.5332h-460.801
c-4.71875 0 -8.5332 3.81445 -8.5332 8.5332v366.934v93.8662c0 4.71973 3.81445 8.5332 8.5332 8.5332h59.7334v25.6006c0 4.71875 3.81445 8.5332 8.5332 8.5332h59.7334c4.71973 0 8.53418 -3.81445 8.53418 -8.5332v-25.6006h187.732v25.6006
c0 4.71875 3.81445 8.5332 8.53418 8.5332h59.7334c4.71875 0 8.5332 -3.81445 8.5332 -8.5332v-25.6006h59.7334zM418.134 174.934v76.7998h-76.8008h-17.0664h-59.7334h-17.0664h-59.7334h-17.0664h-76.8008v-76.7998v-17.0674v-59.7324v-17.0674v-76.7998h76.8008
h17.0664h59.7334h17.0664h59.7334h17.0664h76.8008v76.7998v17.0674v59.7324v17.0674zM477.866 320v76.7998h-51.1992v-25.5996c0 -4.71875 -3.81445 -8.5332 -8.5332 -8.5332h-59.7334c-4.71973 0 -8.53418 3.81445 -8.53418 8.5332v25.5996h-187.732v-25.5996
c0 -4.71875 -3.81445 -8.5332 -8.53418 -8.5332h-59.7334c-4.71875 0 -8.5332 3.81445 -8.5332 8.5332v25.5996h-51.1992v-76.7998h443.732zM341.333 98.1338v59.7324h59.7334v-59.7324h-59.7334zM341.333 21.333v59.7334h59.7334v-59.7334h-59.7334zM264.533 21.333
v59.7334h59.7334v-59.7334h-59.7334zM264.533 98.1338v59.7324h59.7334v-59.7324h-59.7334zM264.533 174.934v59.7334h59.7334v-59.7334h-59.7334z" />
    <glyph glyph-name="001-facebook-1" unicode="&#xf100;" 
d="M383.979 447.894c5.75781 -0.0107422 10.4238 -4.68164 10.4238 -10.4395v-78.1611c0 -5.7627 -4.6709 -10.4395 -10.4346 -10.4395l-44.7256 -0.015625c-30.835 0 -36.4756 -12.0166 -36.4756 -35.6875v-49.249h78.0801c2.76953 0 5.43262 -1.10254 7.3877 -3.0625
s3.05762 -4.6123 3.05762 -7.38184l-0.0322266 -84.1748c0 -5.76855 -4.6709 -10.4395 -10.4395 -10.4395h-78.0537v-212.397c0 -5.76367 -4.67188 -10.4404 -10.4404 -10.4404h-87.0977c-5.76855 0 -10.4404 4.67188 -10.4404 10.4404v212.397h-66.7559
c-5.76367 0 -10.4404 4.6709 -10.4404 10.4395v84.1748c0 5.76855 4.67188 10.4443 10.4404 10.4443h66.7559v58.0957c0 76.5469 48.2051 126.003 122.796 126.003z" />
    <glyph glyph-name="024-phone-1" unicode="&#xf117;" 
d="M510.894 51.2939c0.730469 -1.71191 1.09668 -4.25293 1.08887 -7.65723c0 -6.54785 -1.20801 -15.0908 -3.63867 -25.6338c-2.42383 -10.5479 -4.95996 -18.8506 -7.63672 -24.9053c-5.09082 -12.1309 -19.874 -24.9805 -44.3525 -38.5518
c-22.7861 -12.3623 -45.3379 -18.5469 -67.6367 -18.5469c-6.54102 0 -12.9053 0.431641 -19.0898 1.26855c-6.18164 0.854492 -13.1455 2.37012 -20.9121 4.55469c-7.75 2.18359 -13.5137 3.94434 -17.2695 5.27832c-3.75488 1.33398 -10.4834 3.81836 -20.1807 7.4541
c-9.69336 3.64453 -15.6299 5.82422 -17.8135 6.54785c-23.7539 8.48926 -44.9717 18.5488 -63.6367 30.1826c-31.0312 19.1504 -63.0908 45.2725 -96.1816 78.3613c-33.0889 33.0918 -59.2129 65.1582 -78.3555 96.1865c-11.6348 18.668 -21.6953 39.8779 -30.1787 63.6357
c-0.727539 2.18262 -2.91113 8.11816 -6.54395 17.8164c-3.6377 9.69922 -6.12207 16.4258 -7.45312 20.1807c-1.33008 3.75195 -3.08887 9.51367 -5.26953 17.2705c-2.18359 7.75879 -3.69922 14.7295 -4.54785 20.9102
c-0.848633 6.1875 -1.27246 12.5508 -1.27246 19.0908c0 22.2998 6.18066 44.8496 18.5439 67.6328c13.5771 24.4805 26.4248 39.2676 38.5459 44.3555c6.06055 2.6709 14.3613 5.21289 24.9092 7.63672c10.5449 2.42773 19.0889 3.6377 25.6377 3.6377
c3.39062 0 5.9375 -0.367188 7.63477 -1.09375c4.36523 -1.44922 10.7881 -10.666 19.2676 -27.6318c2.66992 -4.60547 6.30371 -11.1533 10.9082 -19.6328c4.60742 -8.48438 8.84668 -16.1846 12.7295 -23.0928c3.88379 -6.90918 7.63672 -13.3936 11.2695 -19.4492
c0.728516 -0.974609 2.84863 -4.00195 6.36719 -9.09277c3.51562 -5.09375 6.12207 -9.39062 7.81836 -12.9121c1.69531 -3.51465 2.54395 -6.97168 2.54395 -10.3643c0 -4.84668 -3.4541 -10.9043 -10.3623 -18.1777
c-6.91113 -7.27051 -14.4209 -13.9395 -22.5449 -19.9951c-8.11816 -6.05664 -15.6357 -12.4834 -22.5439 -19.2676c-6.90918 -6.78906 -10.3643 -12.3672 -10.3643 -16.7285c0 -2.18359 0.607422 -4.90918 1.81738 -8.18164
c1.20996 -3.27148 2.24023 -5.75781 3.08887 -7.45312c0.847656 -1.70117 2.5459 -4.60645 5.09277 -8.72949c2.54395 -4.11914 3.94043 -6.42285 4.18262 -6.9082c18.4229 -33.2139 39.5176 -61.6943 63.2695 -85.457c23.7598 -23.75 52.2422 -44.8418 85.4521 -63.2695
c0.483398 -0.243164 2.78125 -1.6377 6.91309 -4.18359c4.12402 -2.55371 7.02637 -4.24512 8.71777 -5.09961c1.70703 -0.836914 4.19336 -1.875 7.46094 -3.08691c3.26953 -1.20312 5.99805 -1.81348 8.18652 -1.81348c4.3584 0 9.9375 3.45312 16.7285 10.3652
c6.78125 6.90918 13.207 14.4189 19.2656 22.543c6.05664 8.12891 12.7256 15.6377 19.9961 22.5518c7.26953 6.9043 13.3242 10.3604 18.1719 10.3604c3.39453 0 6.85059 -0.850586 10.3652 -2.54102c3.52148 -1.7002 7.81836 -4.30664 12.9141 -7.81934
c5.09082 -3.52344 8.12109 -5.6416 9.08887 -6.36816c6.05664 -3.63184 12.5381 -7.38867 19.4561 -11.2666c6.9043 -3.87988 14.6064 -8.125 23.0908 -12.7314c8.47754 -4.60742 15.0293 -8.23828 19.627 -10.9102c16.9727 -8.47754 26.1865 -14.9053 27.6348 -19.2686z
" />
    <glyph glyph-name="002-facebook-2" unicode="&#xf101;" 
d="M375.999 328h-75v-60h75c4.41016 0 8.59961 -1.94043 11.4502 -5.2998c2.84961 -3.37012 4.06934 -7.82031 3.34961 -12.1699l-15 -90c-1.20996 -7.23047 -7.46973 -12.5303 -14.7998 -12.5303h-60v-197c0 -8.28027 -6.71973 -15 -15 -15h-90
c-8.28027 0 -15 6.71973 -15 15v197h-45c-8.28027 0 -15 6.71973 -15 15v90c0 8.28027 6.71973 15 15 15h45v75c0 57.9004 47.0996 105 105 105h90c8.28027 0 15 -6.71973 15 -15v-90c0 -8.28027 -6.71973 -15 -15 -15zM285.999 238c-8.28027 0 -15 6.71973 -15 15v90
c0 8.28027 6.71973 15 15 15h75v60h-75c-41.3496 0 -75 -33.6504 -75 -75v-90c0 -8.28027 -6.71973 -15 -15 -15h-45v-60h45c8.28027 0 15 -6.71973 15 -15v-197h60v197c0 8.28027 6.71973 15 15 15h62.29l10 60h-72.29z" />
    <glyph glyph-name="027-phone-call-2" unicode="&#xf11a;" 
d="M404.642 130.834l59.3252 -59.541c10.9141 -10.8066 16.6416 -23.666 16.6416 -37.0654c0 -13.292 -5.61914 -26.2588 -16.3174 -37.3887c-4.64648 -4.86328 -9.40137 -9.50977 -14.0479 -13.9404c-6.80762 -6.5918 -13.292 -12.751 -18.9111 -19.5586
c-0.107422 -0.216797 -0.324219 -0.324219 -0.431641 -0.541016c-16.4258 -17.8301 -37.3896 -26.7988 -62.3516 -26.7988c-2.16113 0 -4.53809 0.108398 -6.80762 0.21582c-37.0654 2.37793 -70.2402 16.3174 -95.0938 28.0957
c-65.0527 31.4463 -122.001 76.0752 -169.332 132.592c-39.0098 46.8984 -65.1611 90.6631 -82.667 137.886c-7.13184 19.2344 -16.4248 48.627 -13.8311 80.1816c1.72852 19.5586 9.61719 36.416 23.4492 50.248l36.7402 37.0645
c0.108398 0.108398 0.108398 0.108398 0.21582 0.216797c10.8066 10.374 23.5576 15.8848 36.7412 15.8848s25.7188 -5.51074 36.2002 -15.8848c7.02441 -6.4834 13.832 -13.3994 20.3154 -20.0996c3.24219 -3.45801 6.7002 -6.91602 10.0498 -10.2656l29.501 -29.501
c22.6924 -22.6924 22.6924 -52.085 0 -74.7783c-3.02539 -3.02539 -6.05176 -6.15918 -9.07715 -9.18457c-7.99609 -8.10547 -16.209 -16.5342 -25.0703 -24.6387c6.5918 -14.5879 15.6689 -28.96 29.1768 -46.0342c27.8799 -34.2549 56.9482 -60.7295 88.9346 -81.0449
c3.13379 -1.94531 6.80762 -3.78223 10.6973 -5.72754c2.70215 -1.40527 5.51172 -2.80957 8.32129 -4.32227l34.1475 34.0391c10.9141 10.9141 23.665 16.6416 36.9561 16.6416c13.4004 0 26.043 -5.83594 36.5254 -16.75zM443.327 17.0459
c11.0225 11.4541 11.0225 22.8008 -0.108398 33.8232l-59.541 59.541l-0.216797 0.216797c-3.34961 3.67383 -8.86035 7.88867 -15.5605 7.88867c-6.80762 0 -12.6426 -4.43066 -16.3174 -8.10547l-36.957 -36.9561c-1.83691 -1.83789 -7.45605 -7.45703 -16.4248 -7.45703
c-3.56641 0 -7.02441 0.865234 -10.6982 2.70215c-0.431641 0.21582 -0.864258 0.540039 -1.29688 0.755859c-3.13379 1.94531 -6.80762 3.78223 -10.6982 5.72754c-4.32227 2.16113 -8.86035 4.43066 -13.291 7.24023c-34.6875 21.9365 -66.1338 50.5723 -95.958 87.3135
l-0.108398 0.107422c-16.4248 20.8564 -27.2314 38.3623 -34.9033 56.9482c-0.108398 0.324219 -0.216797 0.648438 -0.324219 0.972656c-1.94531 6.16016 -3.6748 15.2373 5.61914 24.5303c0.107422 0.21582 0.324219 0.324219 0.540039 0.540039
c9.40137 8.42871 18.0459 17.0742 27.123 26.3672c3.13379 3.02539 6.16016 6.15918 9.29395 9.29297c11.4541 11.4551 11.4541 22.0449 0 33.499l-29.501 29.501c-3.45801 3.56543 -6.91602 7.02344 -10.2656 10.4814c-6.5918 6.80859 -12.8594 13.1836 -19.4512 19.3428
c-0.108398 0.108398 -0.21582 0.216797 -0.324219 0.324219c-3.45801 3.45801 -8.96875 7.56445 -15.7773 7.56445c-5.51074 0 -11.1299 -2.70117 -16.4248 -7.67188l-36.8486 -36.8486c-8.96973 -8.96973 -13.832 -19.4512 -14.9131 -32.0947
c-1.62109 -19.7754 2.05371 -40.7393 12.1035 -67.6465c16.3164 -44.0889 40.9551 -85.1514 77.8037 -129.564c44.6289 -53.2744 98.3359 -95.3105 159.498 -124.919c22.3691 -10.6982 52.1934 -23.2334 84.2881 -25.2861
c1.62012 -0.108398 3.34961 -0.108398 4.9707 -0.108398c16.8574 0 29.7168 5.51074 40.6309 17.1816c6.69922 7.88867 13.832 14.9121 20.8555 21.6123c4.64648 4.53906 8.96875 8.64453 13.1836 13.1836c-0.108398 -0.108398 -0.108398 0 0 0zM276.697 326.209
c-7.99707 1.29688 -13.1836 8.96875 -11.7793 16.8574c1.40527 7.88867 8.86133 13.1836 16.8574 11.8867c34.2559 -5.83594 65.4854 -22.0449 90.2314 -46.791s40.9551 -55.9756 46.79 -90.2305c1.29688 -7.99707 -3.99805 -15.5605 -11.9941 -16.8574
c-0.864258 -0.108398 -1.62109 -0.216797 -2.48535 -0.216797c-7.02441 0 -13.1836 4.9707 -14.3721 12.1035c-4.86328 28.3115 -18.1543 54.0303 -38.6865 74.5615c-20.5312 20.5322 -46.25 33.9316 -74.5615 38.6865zM511.405 222.146
c1.40527 -7.8877 -3.99805 -15.4521 -11.8867 -16.6406c-0.864258 -0.108398 -1.62012 -0.216797 -2.48535 -0.216797c-7.02344 0 -13.1836 4.9707 -14.3721 12.1035c-8.53613 50.3564 -32.3096 96.2822 -68.835 132.807c-36.5244 36.417 -82.4502 60.2979 -132.807 68.835
c-7.99707 1.4043 -13.292 8.86133 -11.9951 16.8574c1.40527 7.88867 8.86133 13.292 16.75 11.8867c56.4072 -9.61719 107.736 -36.2002 148.584 -77.0479c40.8467 -40.8467 67.4297 -92.1758 77.0469 -148.584z" />
    <glyph glyph-name="055-arrow-down" unicode="&#xf136;" 
d="M430.773 103.089l-161.851 -161.868c-7.22168 -6.97754 -18.835 -6.97754 -25.8125 0l-161.867 161.868c-6.97852 7.2207 -6.97852 18.5898 0 25.8115c7.2207 6.97754 18.5898 6.97754 25.8115 0l130.623 -130.883v431.912c0 10.0684 8.2627 18.0703 18.3301 18.0703
c10.0684 0 18.0703 -8.00195 18.0703 -18.0703v-431.912l130.883 130.883c6.96191 6.97754 18.5908 6.97754 25.8125 0c6.97754 -7.22168 6.97754 -18.5908 0 -25.8115z" />
    <glyph glyph-name="060-quote-left" unicode="&#xf13b;" 
d="M177.229 211.69c16.4082 0 30.3613 -5.74414 41.8447 -17.2275c11.4932 -11.4932 17.2373 -25.4346 17.2373 -41.8496v-118.148c0 -16.4189 -5.74414 -30.3604 -17.2295 -41.8516c-11.4893 -11.4854 -25.4375 -17.2275 -41.8457 -17.2275h-118.158
c-16.4092 0 -30.3613 5.74219 -41.8496 17.2275c-11.4873 11.4912 -17.2285 25.4326 -17.2285 41.8516v216.609c0 21.334 4.1543 41.6934 12.4629 61.0781c8.30762 19.3877 19.5361 36.1553 33.6914 50.3047c14.1553 14.1553 30.9219 25.3877 50.3066 33.6963
c19.3877 8.30371 39.7422 12.4619 61.0771 12.4619h19.6914c5.33301 0 9.94727 -1.95312 13.8447 -5.8457c3.89648 -3.89844 5.8457 -8.51562 5.8457 -13.8486v-39.3877c0 -5.33398 -1.94824 -9.94727 -5.8457 -13.8457c-3.89844 -3.89551 -8.5127 -5.8457 -13.8447 -5.8457
h-19.6914c-21.7422 0 -40.3086 -7.69336 -55.6934 -23.0742c-15.3867 -15.3867 -23.0801 -33.9492 -23.0801 -55.6943v-9.8418c0 -8.20703 2.87402 -15.1816 8.61523 -20.9258c5.74414 -5.74414 12.7197 -8.61523 20.9258 -8.61523h68.9238zM494.779 194.463
c11.4854 -11.4932 17.2207 -25.4336 17.2197 -41.8496v-118.148c0 -16.4189 -5.73438 -30.3604 -17.2275 -41.8516c-11.4834 -11.4854 -25.4316 -17.2275 -41.8438 -17.2275h-118.152c-16.4121 0 -30.3604 5.74219 -41.8457 17.2275
c-11.4844 11.4912 -17.2305 25.4326 -17.2305 41.8516v216.609c0 21.334 4.16016 41.6934 12.4658 61.0781c8.30469 19.3877 19.5391 36.1553 33.6943 50.3047c14.1562 14.1553 30.918 25.3877 50.2988 33.6963c19.3926 8.30371 39.7432 12.4619 61.0908 12.4619h19.6865
c5.33398 0 9.95117 -1.95312 13.8457 -5.8457c3.89551 -3.89844 5.84961 -8.51562 5.84961 -13.8486v-39.3877c0 -5.33398 -1.95605 -9.94727 -5.84961 -13.8457c-3.89551 -3.89551 -8.5127 -5.8457 -13.8457 -5.8457h-19.6865
c-21.7539 0 -40.3184 -7.69336 -55.6982 -23.0742c-15.3789 -15.3867 -23.0732 -33.9492 -23.0732 -55.6943v-9.8418c0 -8.20703 2.86914 -15.1816 8.61523 -20.9258c5.73438 -5.74414 12.7168 -8.61523 20.9189 -8.61523h68.9219
c16.4131 0 30.3613 -5.74414 41.8457 -17.2275z" />
    <glyph glyph-name="014-whatsapp-2" unicode="&#xf10d;" 
d="M439.277 375.277c46.8984 -46.8945 72.7227 -109.246 72.7227 -175.57c0 -66.3203 -25.8281 -128.672 -72.7227 -175.566c-46.8984 -46.8945 -109.246 -72.7227 -175.566 -72.7227c-39.5508 0 -78.8555 9.54297 -113.875 27.625l-119.227 -41.7305
c-2.52344 -0.882812 -5.10938 -1.3125 -7.66797 -1.3125c-5.96875 0 -11.7734 2.34375 -16.1836 6.75781c-6.30469 6.30078 -8.38672 15.4414 -5.44531 23.8516l41.7344 119.227c-18.082 35.0195 -27.625 74.3242 -27.625 113.875
c0 66.3203 25.8242 128.672 72.7188 175.566c23.1992 23.1992 50.293 41.3125 80.5352 53.8398c30.2383 12.5273 62.207 18.8789 95.0117 18.8828h0.0234375c66.3281 0 128.668 -25.8242 175.566 -72.7227zM418.043 45.375c41.2266 41.2227 63.9297 96.0352 63.9297 154.336
s-22.7031 113.109 -63.9297 154.332c-41.2227 41.2266 -96.0312 63.9297 -154.332 63.9297h-0.0195312c-58.293 -0.0078125 -113.098 -22.7109 -154.316 -63.9297c-41.2227 -41.2227 -63.9258 -96.0352 -63.9258 -154.332c0 -35.668 8.82422 -71.0977 25.5156 -102.457
c3.02344 -5.68359 3.54688 -12.4062 1.43359 -18.4492l-37.9141 -108.32l108.32 37.9102c6.03516 2.11328 12.7578 1.59375 18.4453 -1.42969c31.3672 -16.6953 66.7969 -25.5156 102.461 -25.5156c58.2969 0 113.109 22.6992 154.332 63.9258zM418.043 45.375z
M355.984 177.531l33.6641 -33.668c5.53516 -5.53125 8.58203 -12.8867 8.58203 -20.7148c0 -7.82422 -3.04688 -15.1797 -8.58203 -20.7148v0.00390625l-26.9297 -26.9336c-8.09766 -8.09766 -19.2539 -12.1562 -32.7578 -12.1562
c-12.2227 0 -26.3672 3.32422 -41.918 9.98828c-28.418 12.1797 -59.6523 34.4688 -87.9453 62.7617s-50.582 59.5273 -62.7617 87.9453c-14.0273 32.7305 -13.2578 59.25 2.16797 74.6758l26.9297 26.9297c11.4219 11.4219 30.0078 11.4219 41.4297 0l33.6641 -33.6641
c11.4258 -11.4219 11.4258 -30.0078 0 -41.4297l-12.4922 -12.4922c16.9062 -31.0195 42.0078 -56.1211 73.0273 -73.0234l12.4922 12.4922c11.4219 11.4219 30.0078 11.4219 41.4297 0zM341.484 96.7383l26.4141 26.4102l-32.6289 32.6289l-15.6367 -15.6367
c-7.07031 -7.07422 -17.793 -8.77734 -26.6875 -4.24219c-40.3125 20.5586 -72.4883 52.7344 -93.0469 93.0469c-4.53516 8.89062 -2.82812 19.6133 4.24219 26.6836l15.6367 15.6406l-32.625 32.6289l-26.4141 -26.4141
c-4.40234 -4.40234 -5.94531 -17.9453 4.19922 -41.6133c10.7109 -24.9922 30.7383 -52.8828 56.3945 -78.5391s53.5508 -45.6875 78.543 -56.3984c23.668 -10.1406 37.207 -8.59766 41.6094 -4.19531zM341.484 96.7383z" />
    <glyph glyph-name="048-share" unicode="&#xf12f;" 
d="M416.479 122.592c51.5947 0 93.3311 -41.7373 93.3066 -93.3076c0 -51.5244 -41.7363 -93.2842 -93.3301 -93.2842c-51.4775 0 -93.2598 41.7598 -93.2598 93.2842c0 9.18164 1.79297 17.874 4.26367 26.2393l-157.671 80.6533
c-17.0576 -22.6279 -43.8564 -37.4482 -74.3613 -37.4482c-51.5459 0 -93.2598 41.7598 -93.2598 93.2832c0 51.5244 41.7129 93.3066 93.2598 93.3066c29.6885 0 55.8818 -14.168 72.9873 -35.8174l158.417 81.0264c-2.09668 7.76074 -3.58887 15.7764 -3.58887 24.2129
c0 51.5 41.7832 93.2598 93.2607 93.2598c51.5928 0 93.3301 -41.7598 93.3291 -93.2607c0 -51.5479 -41.7363 -93.2842 -93.3301 -93.2842c-30.458 0 -57.2803 14.7744 -74.2686 37.3789l-157.741 -80.6523c2.4707 -8.38965 4.24121 -17.0117 4.24121 -26.1699
c0 -8.41211 -1.49023 -16.4053 -3.56445 -24.1416l158.439 -81.0264c17.083 21.626 43.2285 35.748 72.8701 35.748z" />
    <glyph glyph-name="037-calendar-2" unicode="&#xf124;" 
d="M486.4 413.866c4.71875 0 8.5332 -3.81348 8.5332 -8.5332v-93.8662v-366.934c0 -4.71875 -3.81445 -8.5332 -8.5332 -8.5332h-460.801c-4.71875 0 -8.5332 3.81445 -8.5332 8.5332v366.934v93.8662c0 4.71973 3.81445 8.5332 8.5332 8.5332h59.7334v25.6006
c0 4.71875 3.81445 8.5332 8.5332 8.5332h59.7334c4.71973 0 8.53418 -3.81445 8.53418 -8.5332v-25.6006h187.732v25.6006c0 4.71875 3.81445 8.5332 8.53418 8.5332h59.7334c4.71875 0 8.5332 -3.81445 8.5332 -8.5332v-25.6006h59.7334zM366.934 430.934v-25.6006
v-25.5996h42.666v25.5996v25.6006h-42.666zM102.4 430.934v-25.6006v-25.5996h42.666v25.5996v25.6006h-42.666zM34.1338 396.8v-76.7998h443.732v76.7998h-51.1992v-25.5996c0 -4.71875 -3.81445 -8.5332 -8.5332 -8.5332h-59.7334
c-4.71973 0 -8.53418 3.81445 -8.53418 8.5332v25.5996h-187.732v-25.5996c0 -4.71875 -3.81445 -8.5332 -8.53418 -8.5332h-59.7334c-4.71875 0 -8.5332 3.81445 -8.5332 8.5332v25.5996h-51.1992zM34.1338 -46.9336h443.732v349.867h-443.732v-349.867zM324.267 251.733
h17.0664h76.8008v-76.7998v-17.0674v-59.7324v-17.0674v-76.7998h-76.8008h-17.0664h-59.7334h-17.0664h-59.7334h-17.0664h-76.8008v76.7998v17.0674v59.7324v17.0674v76.7998h76.8008h17.0664h59.7334h17.0664h59.7334zM264.533 234.667v-59.7334h59.7334v59.7334
h-59.7334zM324.267 98.1338v59.7324h-59.7334v-59.7324h59.7334zM187.733 157.866v-59.7324h59.7334v59.7324h-59.7334zM187.733 234.667v-59.7334h59.7334v59.7334h-59.7334zM110.934 234.667v-59.7334h59.7334v59.7334h-59.7334zM110.934 157.866v-59.7324h59.7334
v59.7324h-59.7334zM170.667 21.333v59.7334h-59.7334v-59.7334h59.7334zM247.467 21.333v59.7334h-59.7334v-59.7334h59.7334zM324.267 21.333v59.7334h-59.7334v-59.7334h59.7334zM401.066 21.333v59.7334h-59.7334v-59.7334h59.7334zM401.066 98.1338v59.7324h-59.7334
v-59.7324h59.7334zM401.066 234.667h-59.7334v-59.7334h59.7334v59.7334z" />
    <glyph glyph-name="059-quote-right" unicode="&#xf13a;" 
d="M177.233 408.613c16.4082 0 30.3594 -5.74316 41.8447 -17.2285c11.4844 -11.4854 17.2285 -25.4316 17.2285 -41.8457v-216.611c0 -21.332 -4.1543 -41.6904 -12.46 -61.0752c-8.30664 -19.3857 -19.5391 -36.1504 -33.6904 -50.3066
c-14.1543 -14.1543 -30.9229 -25.3887 -50.3076 -33.6943c-19.3857 -8.30469 -39.7441 -12.4648 -61.0801 -12.4648h-19.6904c-5.33789 0 -9.94727 1.95508 -13.8496 5.84863c-3.89648 3.89648 -5.8457 8.52148 -5.8457 13.8467v39.3896
c0 5.33301 1.94922 9.9502 5.8457 13.8447c3.89844 3.89551 8.5127 5.84863 13.8496 5.84863h19.6895c21.7471 0 40.3096 7.69336 55.6934 23.0732c15.3838 15.3877 23.0771 33.9453 23.0771 55.6904v9.84082c0 8.20898 -2.87109 15.1865 -8.61523 20.9258
c-5.74414 5.74219 -12.7197 8.61523 -20.9219 8.61523h-68.9229c-16.4092 0 -30.3613 5.74609 -41.8496 17.2305c-11.4873 11.4844 -17.2285 25.4307 -17.2285 41.8428v118.151c0 16.4131 5.74414 30.3613 17.2285 41.8486c11.4893 11.4854 25.4365 17.2295 41.8496 17.2295
h118.155zM494.765 391.384c11.4922 -11.4844 17.2314 -25.4307 17.2344 -41.8447v-216.611c0 -21.332 -4.15723 -41.6943 -12.4619 -61.0752c-8.30176 -19.3809 -19.54 -36.1504 -33.6943 -50.3066c-14.1553 -14.1543 -30.9219 -25.3887 -50.3027 -33.6943
c-19.3887 -8.30469 -39.7461 -12.4648 -61.0781 -12.4648h-19.6943c-5.33398 0 -9.95117 1.95508 -13.8457 5.84863c-3.89746 3.89648 -5.84961 8.52148 -5.84961 13.8467v39.3896c0 5.33301 1.95215 9.9502 5.84961 13.8447
c3.89551 3.89551 8.51367 5.84863 13.8457 5.84863h19.6943c21.749 0 40.3066 7.69336 55.6904 23.0732c15.3867 15.3877 23.0801 33.9453 23.0801 55.6904v9.84082c0 8.20898 -2.87793 15.1836 -8.61523 20.9258c-5.74316 5.74219 -12.7246 8.61523 -20.9268 8.61523
h-68.9229c-16.4111 0 -30.3604 5.74609 -41.8457 17.2305c-11.4834 11.4844 -17.2256 25.4307 -17.2256 41.8428v118.151c0 16.4131 5.74219 30.3604 17.2256 41.8486c11.4854 11.4854 25.4336 17.2295 41.8457 17.2295h118.151
c16.4121 0 30.3613 -5.74414 41.8457 -17.2295z" />
    <glyph glyph-name="022-blogger-2" unicode="&#xf115;" 
d="M428.522 281.237c46.5283 1.94141 83.4775 -11.5625 83.4775 -57.9199v-146.091c0 -77.8662 -63.3604 -141.227 -141.205 -141.227h-229.59c-77.8447 0 -141.205 63.3604 -141.205 141.227v229.547c0 77.8662 63.3604 141.227 141.205 141.227h146.112
c77.8457 0 141.205 -63.3604 141.205 -141.227v-25.5361zM480 77.2266h0.0214844v146.048c0 26.6025 -24.875 27.2646 -54.6348 25.7705c-41.4512 -2.06934 -25.1943 18.3467 -28.8643 57.7285c0 60.2236 -49.0029 109.227 -109.205 109.227h-146.112
c-60.2021 0 -109.205 -49.0029 -109.205 -109.227v-229.547c0 -60.2236 49.0029 -109.227 109.205 -109.227h229.59c60.2021 0 109.205 49.0029 109.205 109.227zM172.522 228.182c-62.6348 0 -62.7197 94.5918 0 94.6133h83.4775c62.6133 0 62.7197 -94.6133 0 -94.6133
h-83.4775zM172.522 290.773c-20.5225 0 -20.501 -30.5918 0 -30.6133h83.4775c20.5225 0 20.501 30.6133 0 30.6133h-83.4775zM339.478 155.818c62.6348 0 62.5273 -94.5918 0 -94.6133h-166.955c-62.6348 0 -62.5273 94.6133 0 94.6133h166.955zM339.478 93.2266
c20.2451 0 20.2666 30.5918 0 30.6133h-166.955c-20.2451 0 -20.2666 -30.6133 0 -30.6133h166.955z" />
    <glyph glyph-name="019-spotify-1" unicode="&#xf112;" 
d="M256 -64c-141.312 0 -256 114.688 -256 256s114.688 256 256 256s256 -114.688 256 -256s-114.688 -256 -256 -256zM359.936 71.3389c15.7656 0 23.2324 21.6953 5.65332 32.917c-73.6846 44.0752 -160.085 45.7178 -244.629 27.0508
c-20.9922 -4.45898 -17.2588 -33.6641 2.26172 -33.6641c2.98633 0 8.25586 1.64258 12.2881 2.68848c152.832 31.3174 207.21 -29.0137 224.426 -29.0137v0.0214844zM387.733 139.029c11.2422 0 19.9043 9.00293 20.0107 20.1387
c0 8.95996 -3.30664 15.3818 -11.6699 20.3311c-75.1357 44.6934 -183.061 61.1836 -283.669 32.917c-24.8955 -7.01855 -18.8369 -41.3867 4.01074 -41.3867c4.65039 0 7.33887 1.34375 12.2881 2.68848c85.5889 23.2314 181.76 7.8291 246.293 -30.3574
c11.0293 -5.80273 10.3252 -3.69141 12.7363 -4.33105zM97.0244 298.709c-9.28027 -2.6875 -17.9629 -10.624 -17.9629 -24.6396c0 -13.7178 10.4102 -24.3623 24.042 -24.3623c4.9502 0 9.60059 1.64258 13.334 2.66602c85.0342 23.7441 216.469 13.2266 289.92 -30.6348
c4.65039 -2.6875 7.95703 -4.03125 13.333 -4.03125l0.0214844 -0.0214844c24.7471 0 33.8984 33.9414 10.624 47.3594c-90.7949 52.9922 -236.821 61.9102 -333.312 33.6641z" />
    <glyph glyph-name="003-instagram-1" unicode="&#xf102;" 
d="M373.405 448c76.4219 0 138.594 -62.1719 138.594 -138.594v-234.815c0 -76.418 -62.1719 -138.59 -138.59 -138.59h-234.815c-76.4219 0 -138.594 62.1719 -138.594 138.59v234.815c0 76.4219 62.1719 138.594 138.594 138.594h234.812zM256 52.0049
c77.1943 0 139.995 62.8008 139.995 139.995c0 77.1953 -62.8008 139.996 -139.995 139.996c-77.1953 0 -139.996 -62.8008 -139.996 -139.996c0 -77.1943 62.8008 -139.995 139.996 -139.995zM399.343 298.98c22.8125 0 41.3711 18.5547 41.3711 41.3672
s-18.5586 41.3711 -41.3711 41.3711s-41.3672 -18.5586 -41.3672 -41.3711s18.5547 -41.3672 41.3672 -41.3672zM399.343 298.98zM256 301.98c60.6436 0 109.979 -49.3359 109.979 -109.98c0 -60.6396 -49.3359 -109.979 -109.979 -109.979
c-60.6406 0 -109.98 49.3398 -109.98 109.979c0 60.6445 49.3398 109.98 109.98 109.98zM256 301.98zM399.343 351.699c6.26172 0 11.3555 -5.08984 11.3555 -11.3516s-5.09375 -11.3516 -11.3555 -11.3516c-6.25781 0 -11.3516 5.09375 -11.3516 11.3516
s5.09375 11.3516 11.3516 11.3516zM399.343 351.699z" />
    <glyph glyph-name="043-user-2" unicode="&#xf12a;" 
d="M254.145 172.12c-31.0654 0.530273 -56.1934 11.4512 -74.6426 32.3379c-40.8203 46.0156 -34.0342 124.898 -33.292 132.427c2.65039 56.9355 29.793 83.9727 52.0586 96.5898c22.1602 12.6172 45.2734 14.5254 57.042 14.5254h0.636719h0.423828h0.742188
c21.417 -0.423828 40.6084 -5.51367 57.042 -14.9492c22.0537 -12.6172 48.7725 -39.6543 51.4229 -96.166c0.742188 -7.52832 7.52734 -86.4111 -33.292 -132.427c-18.5547 -20.8867 -43.6836 -31.8076 -74.749 -32.3379h-1.05957h-0.636719h-1.69629zM174.519 334.234
c-0.105469 -0.636719 -7.31543 -73.0527 26.2949 -110.798c13.2529 -15.0557 31.1719 -22.4775 54.4971 -22.6895h0.530273v0h0.530273c23.4316 0.211914 41.2441 7.63379 54.6035 22.6895c33.7158 37.958 26.2939 110.056 26.1885 110.798
c-0.106445 0.211914 -0.106445 0.529297 -0.106445 0.847656c-3.28613 71.8857 -51.9521 83.5488 -80.5791 84.1846h-0.848633h-0.423828c-23.1143 0 -77.0811 -8.16406 -80.5801 -84.1846c0 -0.211914 -0.106445 -0.530273 -0.106445 -0.847656zM473.725 41.2842
c0.106445 -5.51367 0.211914 -33.8223 -5.08887 -47.9238c-1.06055 -2.75684 -3.0752 -5.08984 -5.51367 -6.67969c-3.18066 -2.01465 -79.4141 -50.6807 -206.963 -50.6807c-127.55 0 -203.782 48.5596 -206.963 50.6807
c-2.54492 1.58984 -4.45312 3.92285 -5.51367 6.67969c-5.61914 14.207 -5.51367 42.5166 -5.40723 48.0293v0.318359c0.106445 0.848633 0.106445 1.69629 0.106445 2.65039c0.635742 20.8877 2.01367 69.9775 48.0293 85.7754
c0.318359 0.106445 0.636719 0.211914 1.06055 0.318359c48.0293 12.1924 87.5771 39.7598 88.002 40.0771c6.4668 4.55957 15.373 2.96875 19.9326 -3.49805c4.55859 -6.46777 2.96875 -15.374 -3.49902 -19.9336c-1.80273 -1.16602 -44.001 -30.6416 -96.8018 -44.2129
c-24.7041 -8.7998 -27.4609 -35.2002 -28.2031 -59.374c0 -0.954102 -0.105469 -1.80273 -0.105469 -2.65137c-0.212891 -9.54199 0.529297 -24.2793 2.22656 -32.7617c17.2822 -9.75391 85.0322 -43.5762 187.029 -43.5762c102.422 0 169.748 33.7158 186.924 43.4707
c1.69727 8.48145 2.33301 23.2197 2.22656 32.7617c-0.105469 0.847656 -0.105469 1.69629 -0.105469 2.65039c-0.742188 24.1738 -3.49902 50.5742 -28.2031 59.375c-52.8008 13.5713 -94.999 42.9404 -96.8018 44.2129
c-6.46777 4.55859 -8.05762 13.4648 -3.49902 19.9326c4.55957 6.46777 13.4658 8.05762 19.9326 3.49902c0.424805 -0.318359 40.1846 -27.8848 88.002 -40.0781c0.318359 -0.105469 0.742188 -0.211914 1.06055 -0.318359
c46.0156 -15.6914 47.3936 -64.7812 48.0293 -85.7744c0 -0.954102 0.106445 -1.80273 0.106445 -2.65137v-0.317383z" />
    <glyph glyph-name="032-placeholder-1" unicode="&#xf11f;" 
d="M262.459 447.894c111.151 -3.74707 192.453 -107.943 173.766 -217.578c-18.0488 -105.948 -115.439 -179.692 -172.422 -289.666c-3.20898 -6.2041 -12.1416 -6.19629 -15.3398 0.00878906c-62.9883 122.221 -175.368 207.207 -175.368 324.311
c0 103.186 85.3877 186.429 189.364 182.925zM256.124 169.097c52.9482 0 95.873 42.9258 95.873 95.8721c0 52.9473 -42.9248 95.8721 -95.873 95.8721c-52.9463 0 -95.8721 -42.9248 -95.8721 -95.8721c0 -52.9463 42.9238 -95.8721 95.8721 -95.8721z" />
    <glyph glyph-name="041-clock-2" unicode="&#xf128;" 
d="M255.895 448c70.6367 0 134.592 -28.7236 181.019 -74.9639c46.2393 -46.4375 74.9629 -110.393 74.9629 -181.03c0 -70.6367 -28.7236 -134.592 -74.9629 -181.03c-46.4385 -46.2402 -110.382 -74.9629 -181.019 -74.9629s-134.579 28.7227 -180.819 74.9629
c-46.4385 46.4385 -74.9756 110.381 -74.9756 181.03c0 70.6377 28.5244 134.593 74.9629 181.03c46.2529 46.2402 110.195 74.9639 180.832 74.9639v0zM386.358 205.978c7.67383 0 13.7725 -6.29785 13.7725 -13.9717c0 -7.67285 -6.09863 -13.9707 -13.7725 -13.9707
h-130.067h-0.396484c-5.12012 0 -9.64453 2.9502 -12 7.07812l-0.198242 0.198242v0l-0.198242 0.397461v0v0.198242v0l-0.198242 0.396484v0l-0.198242 0.396484v0v0.198242v0l-0.199219 0.397461v0l-0.198242 0.198242v0v0.396484v0l-0.198242 0.396484v0v0.198242v0
l-0.198242 0.396484v0v0.397461v0v0.198242v0.198242l-0.198242 0.198242v0v0.396484v0v0.396484v0v0.347656v0v0.198242v0v0.396484v0v0.396484v0v166.663c0 7.67383 6.09961 13.7725 13.7725 13.7725c7.67383 0 13.9717 -6.09863 13.9717 -13.7725v-152.691h116.505z
M417.239 353.351c-41.3193 41.3184 -98.3809 66.707 -161.345 66.707c-62.9629 0 -120.025 -25.376 -161.344 -66.707c-41.1201 -41.3184 -66.708 -98.3809 -66.708 -161.345c0 -62.9629 25.5752 -120.025 66.708 -161.356
c41.3184 -41.3184 98.3809 -66.707 161.344 -66.707c62.9639 0 120.025 25.3887 161.345 66.707c41.3184 41.3184 66.9053 98.3809 66.9053 161.356c0 62.9639 -25.5752 120.026 -66.9053 161.345v0z" />
    <glyph glyph-name="042-user-1" unicode="&#xf129;" 
d="M256.001 176.873c-63.4014 0 -114.796 60.1582 -114.797 134.365c0 102.906 51.3945 134.364 114.797 134.364c63.3994 0 114.797 -31.458 114.797 -134.364c0 -74.207 -51.3994 -134.365 -114.797 -134.365zM509.496 -20.8945
c3.99316 -8.99023 3.17188 -19.2852 -2.18945 -27.5342c-5.3623 -8.24707 -14.4395 -13.1729 -24.2783 -13.1729h-454.059c-9.83984 0 -18.9141 4.92285 -24.2764 13.1719c-5.36426 8.25 -6.18262 18.541 -2.18945 27.5352l57.917 130.468
c2.65137 5.97266 7.2998 10.9219 13.0947 13.9375l89.877 46.7891c1.98145 1.03027 4.38184 0.830078 6.16895 -0.518555c25.4219 -19.2285 55.3096 -29.3916 86.4395 -29.3916c31.124 0 61.0146 10.1631 86.4365 29.3916c1.78223 1.34863 4.18164 1.54883 6.16406 0.518555
l89.8828 -46.7891c5.79199 -3.01562 10.4463 -7.96777 13.0947 -13.9375z" />
    <glyph glyph-name="030-paper-plane-1" unicode="&#xf11d;" 
d="M186.667 72.2773l86.7627 -29.6533l-57.8779 -78.7627c-3.07129 -4.18164 -7.89355 -6.52832 -12.8848 -6.52832c-1.66406 0 -3.34961 0.255859 -4.99219 0.790039c-6.57129 2.17578 -11.0078 8.29785 -11.0078 15.21v98.9443zM505.28 445.034
c4.90625 -3.49805 7.42383 -9.42871 6.54883 -15.4023l-58.666 -394.666c-0.704102 -4.67285 -3.45605 -8.83203 -7.50977 -11.3076c-2.53906 -1.53516 -5.41895 -2.3252 -8.32031 -2.3252c-1.74902 0 -3.49805 0.298828 -5.16211 0.853516l-223.638 76.4375
l219.904 264.938l-284.182 -242.986l-133.439 45.6104c-6.03809 2.06934 -10.2832 7.53125 -10.7734 13.9307c-0.469727 6.37891 2.87988 12.4375 8.55469 15.4023l480 250.667c5.33301 2.79492 11.7754 2.3252 16.6826 -1.15234z" />
    <glyph glyph-name="018-flickr-2" unicode="&#xf111;" 
d="M120.5 312.5c66.4443 0 120.5 -54.0557 120.5 -120.5s-54.0557 -120.5 -120.5 -120.5s-120.5 54.0557 -120.5 120.5s54.0557 120.5 120.5 120.5zM120.5 101.5c49.9023 0 90.5 40.5977 90.5 90.5s-40.5977 90.5 -90.5 90.5s-90.5 -40.5977 -90.5 -90.5
s40.5977 -90.5 90.5 -90.5zM391.5 312.5c66.4443 0 120.5 -54.0557 120.5 -120.5s-54.0557 -120.5 -120.5 -120.5s-120.5 54.0557 -120.5 120.5s54.0557 120.5 120.5 120.5zM391.5 101.5c49.9023 0 90.5 40.5977 90.5 90.5s-40.5977 90.5 -90.5 90.5
s-90.5 -40.5977 -90.5 -90.5s40.5977 -90.5 90.5 -90.5z" />
    <glyph glyph-name="034-settings-1" unicode="&#xf121;" 
d="M441.814 255.694c70.1768 -25.0195 70.1768 -27.9189 70.1836 -36.2236v-52.707c0 -8.07715 0 -10.915 -69.9609 -37.9492l-8.62793 -20.6172c31.3984 -66.1738 29.3389 -68.2266 23.457 -74.1621l-41.3467 -40.4766l-5.12207 -0.144531
c-6.16309 0 -29.0928 8.40332 -68.2354 24.9541l-21.3594 -8.63672c-25.6592 -68.5957 -28.5781 -68.5957 -36.8086 -68.5957h-53.8232c-8.09473 0 -10.9287 -0.0166016 -38.5166 68.3525l-21.3047 8.66406c-58.0693 -26.3564 -64.9414 -26.3564 -67.2363 -26.3564h-4.44043
l-3.79395 3.2627l-38.1484 37.3154c-5.80078 5.79883 -7.80566 7.82422 22.0508 75.2812l-8.68652 20.5645c-70.0947 25.1084 -70.0947 28.0264 -70.0947 36.3037v52.7656c0 8.26367 0 10.8828 69.8604 37.8906l8.6875 20.6006
c-31.5732 66.4492 -29.4004 68.5137 -23.1748 74.3682l41.0322 40.2305l5.08789 0.158203c6.20215 0 29.1846 -8.37695 68.3721 -24.9238l21.25 8.62793c25.583 68.6309 28.7188 68.6221 36.7861 68.6221h53.8154c8.07617 0 10.9053 0 38.4893 -68.3789l21.3418 -8.60449
c57.9883 26.3018 64.9463 26.3018 67.2773 26.3018h4.41895l3.78516 -3.19043l38.1484 -37.2705c5.79883 -5.85449 7.7793 -7.86035 -22.083 -75.3535zM255.986 104.222c49.3145 0 89.4141 39.4033 89.4229 87.8193c0 48.3701 -40.0996 87.7441 -89.4229 87.7441
c-49.3486 0 -89.5342 -39.3652 -89.5342 -87.7441c0 -48.416 40.1846 -87.8193 89.5342 -87.8193z" />
    <glyph glyph-name="046-tag-1" unicode="&#xf12d;" 
d="M505.225 445.5c3.33691 -3.33691 3.33691 -8.72949 0.00878906 -12.0664l-31.6338 -31.6328v-207.121l-243.208 -249.779c-5.76855 -5.76855 -13.3291 -8.90039 -21.376 -8.90039s-15.6162 3.13184 -21.291 8.81445l-174.643 174.644
c-11.7422 11.7422 -11.7422 30.8398 0 42.5811l249.762 251.827h198.682l31.6328 31.6338c3.33691 3.33594 8.72949 3.33594 12.0664 0zM379.725 277.333c23.5264 0 42.667 19.1406 42.667 42.667s-19.1406 42.667 -42.667 42.667s-42.666 -19.1406 -42.666 -42.667
s19.1396 -42.667 42.666 -42.667z" />
    <glyph glyph-name="021-blogger-1" unicode="&#xf114;" 
d="M498.944 249.92c13.0557 -5.59961 13.0557 -21.7598 13.0557 -21.7598l-1.02441 -130.656c-0.511719 -88.7998 -72.9912 -161.504 -162.271 -161.504h-186.464c-89.2803 0 -162.24 72.7041 -162.24 161.504v188.672c0 88.96 72.96 161.824 162.24 161.824h113.504
c48.96 0 102.848 -40.7363 125.344 -88.2881c6.17578 -13.3438 8.63965 -21.0234 14.5918 -54.9121c3.55273 -20.2236 4.12793 -35.3916 13.2168 -43.7754c12.8633 -11.6162 59.2314 -6.49609 70.0479 -11.1045zM164.288 315.744
c-17.1523 0 -31.0723 -13.8242 -31.0723 -30.7842c0 -16.9277 13.9199 -30.9443 31.0723 -30.9443h89.9844c17.1514 0 31.0713 13.9844 31.0713 30.9443c0 16.9277 -13.9199 30.7842 -31.0713 30.7842h-89.9844zM347.168 69.0879c16.9922 0 30.9121 14.0156 30.9121 30.7842
c0 16.9277 -13.9199 30.7842 -30.9121 30.7842h-182.88c-17.1523 0 -31.0723 -13.8564 -31.0723 -30.7842c0 -16.7686 13.9199 -30.7842 31.0723 -30.7842h182.88z" />
    <glyph glyph-name="057-next" unicode="&#xf138;" 
d="M387.058 202.207c5.58008 -5.58008 5.58008 -14.8076 -0.107422 -20.3867l-241.528 -241.528c-2.78906 -2.89746 -6.54492 -4.29199 -10.1934 -4.29199c-3.64746 0 -7.40332 1.50195 -10.1934 4.29199c-5.68652 5.68652 -5.68652 14.8066 0 20.4941l231.228 231.228
l-231.228 231.228c-5.68652 5.68652 -5.68652 14.8066 0 20.4941c5.6875 5.68652 14.8076 5.68652 20.4941 0z" />
    <glyph glyph-name="039-comment-2" unicode="&#xf126;" 
d="M136.533 238.934c18.8242 0 34.1338 -15.3086 34.1338 -34.1338c0 -18.8242 -15.3096 -34.1328 -34.1338 -34.1328s-34.1328 15.3086 -34.1328 34.1328c0 18.8252 15.3086 34.1338 34.1328 34.1338zM136.533 187.733c9.41211 0 17.0664 7.6543 17.0664 17.0664
s-7.6543 17.0664 -17.0664 17.0664s-17.0664 -7.6543 -17.0664 -17.0664s7.6543 -17.0664 17.0664 -17.0664zM256 238.934c18.8242 0 34.1338 -15.3086 34.1338 -34.1338c0 -18.8242 -15.3096 -34.1328 -34.1338 -34.1328s-34.1338 15.3086 -34.1338 34.1328
c0 18.8252 15.3096 34.1338 34.1338 34.1338zM256 187.733c9.41211 0 17.0664 7.6543 17.0664 17.0664s-7.6543 17.0664 -17.0664 17.0664s-17.0664 -7.6543 -17.0664 -17.0664s7.6543 -17.0664 17.0664 -17.0664zM375.467 238.934
c18.8242 0 34.1328 -15.3086 34.1328 -34.1338c0 -18.8242 -15.3086 -34.1328 -34.1328 -34.1328s-34.1338 15.3086 -34.1338 34.1328c0 18.8252 15.3096 34.1338 34.1338 34.1338zM375.467 187.733c9.41211 0 17.0664 7.6543 17.0664 17.0664
s-7.6543 17.0664 -17.0664 17.0664s-17.0664 -7.6543 -17.0664 -17.0664s7.6543 -17.0664 17.0664 -17.0664zM256 435.2c141.158 0 256 -103.355 256 -230.4c0 -127.044 -114.842 -230.399 -256 -230.399c-36.3779 0 -71.501 6.74121 -104.474 20.0439
c-58.0693 -33.5186 -138.351 -45.0723 -141.807 -45.5586c-0.401367 -0.0605469 -0.793945 -0.0859375 -1.18652 -0.0859375c-3.2002 0 -6.18652 1.80078 -7.63672 4.72754c-1.63867 3.27734 -0.990234 7.24512 1.60352 9.83887
c19.627 19.6182 33.1436 61.0303 38.1865 116.813c-26.6406 37.1963 -40.6865 80.2129 -40.6865 124.62c0 127.045 114.842 230.4 256 230.4zM256 -8.5332c131.746 0 238.934 95.7012 238.934 213.333s-107.188 213.334 -238.934 213.334
s-238.934 -95.7021 -238.934 -213.334c0 -41.7793 13.5771 -82.2871 39.2617 -117.111c1.2207 -1.67285 1.80078 -3.7207 1.62988 -5.77734c-2.97754 -35.626 -10.5635 -80.9814 -29.3545 -112.298c28.4502 5.79395 79.7354 18.6367 117.846 41.6504h0.00878906
c18.0049 11.1191 38.1094 24.0049 42.7861 27.7168c2.53418 3.69434 7.53418 4.80371 11.417 2.47461c2.56055 -1.52734 4.17285 -4.36914 4.19043 -7.34766c0.0253906 -5.03418 -0.0517578 -6.57031 -34.8252 -28.2959c27.3838 -9.48926 56.2178 -14.3447 85.9736 -14.3447
z" />
    <glyph glyph-name="006-youtube-2" unicode="&#xf105;" 
d="M334.809 212.008c6.69531 -3.66406 10.8359 -10.6758 10.8086 -18.3047c-0.03125 -7.62891 -4.22266 -14.6094 -10.9375 -18.2227l-113.117 -60.8242c-3.10547 -1.67188 -6.48047 -2.50391 -9.84766 -2.50391c-3.67578 0 -7.34375 0.992188 -10.6523 2.96875
c-6.33594 3.78516 -10.1172 10.4531 -10.1172 17.832v122.719c0 7.41406 3.80469 14.0938 10.1836 17.875c6.375 3.77734 14.0625 3.91016 20.5664 0.351562zM220.949 148.391l84.5391 45.4609l-84.5391 46.2578v-91.7188zM220.949 148.391zM508.234 291.473
c0.152344 -1.71875 3.76562 -42.5391 3.76953 -83.5234v-38.3125c0 -40.9844 -3.61719 -81.8047 -3.76953 -83.5234l-0.0585938 -0.523438c-0.5 -4.02734 -5.41016 -39.8984 -22.3828 -58.3477c-20.3711 -22.4141 -43.3477 -24.8477 -54.3867 -26.0195
c-1.05469 -0.109375 -2.01562 -0.210938 -2.87109 -0.324219l-0.894531 -0.09375c-67.6875 -4.92188 -169.906 -5.59375 -170.93 -5.59766l-0.15625 -0.00390625l-0.15625 0.00390625c-5.19531 0.0742188 -127.73 1.90625 -166.812 5.625l-1.18359 0.164062
c-1.22266 0.214844 -3.01562 0.417969 -5.09766 0.65625c-13.1719 1.50781 -37.6602 4.3125 -57.0273 25.5078c-17.7383 18.6523 -22.0508 54.6367 -22.4844 58.6914l-0.0273438 0.257812c-0.152344 1.71875 -3.76562 42.543 -3.76562 83.5273v38.3125
c0 40.9844 3.61328 81.8086 3.76562 83.5234l0.0585938 0.523438c0.503906 4.03125 5.41016 39.9023 22.3828 58.3477c20.6562 22.7227 43.7578 25.3906 54.8594 26.6719c0.871094 0.101562 1.67188 0.191406 2.39844 0.289062l0.902344 0.09375
c68.2969 4.92188 170.52 5.59375 171.543 5.59766l0.0898438 0.00390625l0.0898438 -0.00390625c1.02344 -0.00390625 103.246 -0.675781 170.934 -5.59766l0.894531 -0.09375c0.761719 -0.101562 1.61328 -0.199219 2.54297 -0.304688
c11.2305 -1.27734 34.582 -3.94141 55.1797 -25.8711c17.8203 -18.6445 22.1367 -55.3008 22.5703 -59.4219zM481.996 169.637v38.3125c0 38.5469 -3.41016 78.1602 -3.63672 80.7188c-1.27734 11.6914 -6.30469 33.2852 -14.4297 41.75l-0.121094 0.128906
c-13.0742 13.9453 -27.3203 15.5703 -36.7461 16.6445c-0.949219 0.109375 -1.83203 0.210938 -2.64062 0.3125c-65.832 4.75781 -164.867 5.46875 -168.422 5.49219c-3.55469 -0.0273438 -102.625 -0.734375 -169.047 -5.49219
c-0.753906 -0.0976562 -1.57031 -0.191406 -2.44531 -0.292969c-9.16406 -1.05859 -23.0195 -2.66016 -36.1602 -17.1133c-7.92578 -8.61719 -13.1992 -29.9375 -14.7188 -41.5742c-0.320312 -3.66016 -3.625 -42.6836 -3.625 -80.5742v-38.3125
c0 -38.4648 3.39844 -77.9922 3.63672 -80.7031c1.27734 -11.4609 6.30469 -32.6836 14.4297 -41.1484l0.277344 -0.296875c11.8047 -12.9844 27.1562 -14.7422 38.3711 -16.0273c2.21094 -0.25 4.30859 -0.492188 6.25 -0.808594
c37.8906 -3.51953 158.633 -5.36719 163.715 -5.44141c4.53125 0.0273438 102.895 0.753906 168.363 5.48828c0.96875 0.121094 2.03906 0.238281 3.19531 0.359375c9.5625 1.01172 22.6602 2.40234 35.4102 16.4297c8.26953 8.98828 13.4453 31.6836 14.7188 41.5625
c0.3125 3.58594 3.625 42.6523 3.625 80.5859zM481.996 169.637z" />
    <glyph glyph-name="005-youtube-1" unicode="&#xf104;" 
d="M220.949 153.391v91.7188l84.5391 -46.2578zM220.949 153.391zM508.234 296.473c0.152344 -1.71875 3.76562 -42.5391 3.76562 -83.5234v-38.3125c0 -40.9844 -3.61328 -81.8086 -3.76562 -83.5234l-0.0585938 -0.523438
c-0.503906 -4.03125 -5.41016 -39.9023 -22.3828 -58.3516c-20.375 -22.4102 -43.3477 -24.8438 -54.3906 -26.0156c-1.05469 -0.109375 -2.01562 -0.210938 -2.86719 -0.324219l-0.894531 -0.0898438c-67.6875 -4.92578 -169.906 -5.59766 -170.934 -5.60156
l-0.152344 -0.00390625l-0.15625 0.00390625c-5.19531 0.0742188 -127.73 1.90625 -166.812 5.62891l-1.18359 0.160156c-1.21875 0.214844 -3.01562 0.421875 -5.09766 0.660156c-13.1719 1.50781 -37.6602 4.30859 -57.0273 25.5078
c-17.7383 18.6523 -22.0508 54.6367 -22.4844 58.6875l-0.0273438 0.261719c-0.152344 1.71484 -3.76562 42.5391 -3.76562 83.5234v38.3125c0 40.9844 3.61328 81.8086 3.76562 83.5234l0.0585938 0.523438c0.503906 4.03125 5.41016 39.9023 22.3828 58.3516
c20.6562 22.7188 43.7578 25.3867 54.8594 26.668c0.871094 0.101562 1.67188 0.191406 2.39844 0.289062l0.902344 0.09375c68.2969 4.92188 170.52 5.59375 171.543 5.60156h0.179688c1.02344 -0.0078125 103.246 -0.679688 170.934 -5.60156l0.894531 -0.09375
c0.761719 -0.101562 1.61328 -0.195312 2.54297 -0.304688c11.2305 -1.27734 34.582 -3.94141 55.1797 -25.8711c17.8203 -18.6406 22.1367 -55.3008 22.5703 -59.4219zM334.676 180.48c6.71875 3.61328 10.9102 10.5977 10.9375 18.2227
c0.0273438 7.62891 -4.11328 14.6445 -10.8047 18.3047l-113.113 61.8945c-6.50391 3.55859 -14.1953 3.42188 -20.5703 -0.355469c-6.375 -3.78125 -10.1797 -10.4609 -10.1797 -17.875v-122.719c0 -7.37891 3.78125 -14.0469 10.1172 -17.8359
c3.30859 -1.97266 6.97656 -2.96484 10.6523 -2.96484c3.36719 0 6.74219 0.832031 9.84766 2.50391zM334.676 180.48z" />
    <glyph glyph-name="056-arrow-left" unicode="&#xf137;" 
d="M167.009 366.568c7.21777 7.21777 18.582 7.21777 25.7998 0c6.97461 -6.97461 6.97461 -18.582 0 -25.54l-130.82 -130.82h431.69c10.0625 0 18.3213 -7.99902 18.3213 -18.0615c0 -10.0635 -8.25879 -18.3223 -18.3213 -18.3223h-431.69l130.82 -130.576
c6.97461 -7.21875 6.97461 -18.8418 0 -25.7998c-7.21777 -7.21875 -18.582 -7.21875 -25.7998 0l-161.79 161.79c-6.97461 6.97461 -6.97461 18.582 0 25.54z" />
    <glyph glyph-name="052-shopping-cart" unicode="&#xf133;" 
d="M148.004 68.6826h301.283c8.28809 0 15.0078 -6.71973 15.0078 -15.0078c0 -6.61328 -4.28223 -12.2148 -10.2217 -14.2148c3.49219 -7.02539 5.4668 -14.9336 5.4668 -23.2979c0 -28.9639 -23.5654 -52.5293 -52.5312 -52.5293
c-28.9639 0 -52.5293 23.5645 -52.5293 52.5293c0 8.05078 1.82617 15.6797 5.0752 22.5059h-94.7656c3.25195 -6.82812 5.0791 -14.46 5.0791 -22.5137c0 -28.9648 -23.5645 -52.5293 -52.5293 -52.5293c-28.9658 0 -52.5303 23.5645 -52.5303 52.5293
c0 8.05273 1.82617 15.6855 5.0791 22.5137h-21.8838c-25.3955 0 -46.416 20.6562 -46.8584 46.0469c-0.220703 12.6963 4.56543 24.668 13.4785 33.7129c8.48242 8.60645 19.668 13.4912 31.6777 13.9277l-68.3018 253.41
c-0.730469 2.69922 -3.20703 4.59473 -6.01953 4.59473h-56.9727c-8.28809 0 -15.0078 6.71973 -15.0078 15.0078c0 8.28906 6.71973 15.0078 15.0078 15.0078h56.9727c16.3369 0 30.7275 -11.0127 34.9961 -26.7822l17.7852 -65.9873
c112.192 -0.447266 331.233 -1.43945 357.038 -1.43945c9.26855 0 17.8838 -4.22461 23.6387 -11.4902c5.75488 -7.26465 7.86035 -16.6113 5.77441 -25.6426l-36.4238 -157.725c-3.94629 -17.0928 -18.9561 -29.0322 -36.5 -29.0322
c-64.1455 0.0449219 -228.118 -0.113281 -290.286 0.103516c-21.9473 -1.09277 -22.3682 -32.5557 0.000976562 -33.6982zM239.852 16.1533c0 12.4082 -10.0898 22.5029 -22.4951 22.5137h-0.0380859c-12.4053 -0.0107422 -22.4951 -10.1055 -22.4951 -22.5137
c0 -12.4141 10.0996 -22.5137 22.5146 -22.5137c12.4141 0 22.5137 10.0996 22.5137 22.5137zM407.01 -6.35254c12.415 0 22.5156 10.1006 22.5166 22.5137c0 12.292 -9.90332 22.3086 -22.1504 22.5059h-0.730469c-12.2461 -0.197266 -22.1494 -10.2139 -22.1494 -22.5059
c0 -12.4131 10.1006 -22.5137 22.5137 -22.5137zM481.91 296.041c-0.0878906 0.111328 -0.141602 0.111328 -0.230469 0.113281l-58.1797 0.234375l-8.84961 -67.0586h51.9697l15.3467 66.46c0.0195312 0.0859375 0.0322266 0.139648 -0.0566406 0.250977zM327.183 132.294
h44.3857l8.84473 67.0195h-53.2305v-67.0195zM252.762 132.294h44.4053v67.0195h-53.3223zM183.672 132.294h38.8086l-8.91699 67.0195h-54.2217l16.4502 -61.0361c0.952148 -3.51465 4.1748 -5.98242 7.83301 -5.9834h0.046875zM239.851 229.329h57.3154v67.5674
l-66.3418 0.267578zM327.183 229.329h57.1914l8.86621 67.1807l-66.0576 0.265625v-67.4463zM200.527 297.287l-67.666 0.273438l18.3896 -68.2305h58.3184zM438.289 132.294c3.48633 0 6.46875 2.37305 7.25391 5.77051l14.1445 61.249h-48.999l-8.84473 -67.0195h36.4453z
" />
    <glyph glyph-name="010-twitter-2" unicode="&#xf109;" 
d="M512 392.035c-0.078125 -0.113281 -36.1367 -49.5547 -48.8438 -66.5195c-6.34375 -8.47266 -9.51172 -19.5117 -8.92188 -31.0781c3.90625 -76.4023 -14.8984 -149.82 -72.207 -201.434c-68.0391 -61.2773 -169.105 -72.7422 -258.871 -58.6641
c-40.3828 6.33594 -81.2539 27.457 -92.8203 33.7812l-30.3359 16.5859l32.8438 10.7969c35.8984 11.8086 57.7383 19.1289 84.7734 30.6016c-27.0703 13.1094 -47.9297 36.6914 -57.9727 67.1719l-7.64062 23.1992l6.26172 -0.960938
c-5.94141 5.99219 -10.6289 12.0664 -14.2695 17.5977c-12.9297 19.6406 -19.7773 43.6484 -18.3203 64.2148l1.4375 20.2461l12.1172 -4.69531c-5.11328 9.65625 -8.80469 19.9688 -10.9766 30.7812c-5.29297 26.3555 -0.863281 54.3594 12.4766 78.8516l10.5547 19.3828
l14.125 -16.9648c44.6602 -53.6484 101.227 -85.4727 168.363 -94.7891c-6.17578 42.5664 12.3398 78.9844 46.8359 100.191c42.125 25.8906 101.047 24.3164 140.688 -11.3125c15.0938 3.91797 74.6328 25.8203 74.6328 25.8203l-19.0742 -54.4727
c3.64062 0.304688 2.9375 0.183594 35.1445 1.66797zM439.168 343.484c4.49609 6 8.23438 11.0039 11.3516 15.1836l-16.5156 0.0117188l12.9375 36.9453c-6.21484 -2.21484 -12.5625 -4.25 -20.2969 -6.17188c-8.61719 -2.14062 -17.8242 0.324219 -24.6328 6.58984
c-31.5234 29.0312 -77.0352 26.375 -105.707 8.75391c-13.7266 -8.4375 -44.1602 -33.3633 -30.2734 -82.4531c0.625 -2.20703 0.6875 -2.26172 3.07422 -25.4453c-10.8438 2.51562 -118.57 -4.63672 -210.32 90.5273c-8.63672 -33.1172 3.14453 -67.5664 32.543 -90.4961
l40.8008 -31.8281l-51.4961 5.09375c-10.4883 1.03906 -16.9922 2.10547 -22.5703 3.60156c2.10156 -7.69922 5.60547 -16.0508 10.9688 -24.2031c8.16797 -12.4062 23.5781 -28.582 50.6133 -35.2031l55.6367 -13.625l-55.1758 -15.3672
c-7.23047 -2.01562 -14.4922 -3.23438 -22.0234 -3.67188c14.1836 -21.8047 37.2578 -35.2344 64.9688 -37.0078l57.8516 -3.70312l-52.3984 -24.8008c-37.5352 -17.7656 -60.7773 -26.9961 -90.875 -37.3516c14.8555 -6.08984 32.8047 -12.1875 50.1719 -14.9102
c95.8984 -15.043 181.254 3.66406 234.172 51.3242c45.3008 40.7969 66.2695 100.562 62.3281 177.629c-0.945312 18.5469 4.33203 36.5117 14.8672 50.5781zM439.168 343.484z" />
    <glyph glyph-name="058-prev" unicode="&#xf139;" 
d="M155.784 192.014l231.12 -231.228c5.68652 -5.6875 5.68652 -14.8076 0 -20.4941c-2.79004 -2.89746 -6.54492 -4.29199 -10.1934 -4.29199s-7.40332 1.50195 -10.1934 4.29199l-241.528 241.421c-5.68652 5.68652 -5.68652 14.8066 0 20.4941l241.528 241.528
c5.68652 5.68652 14.8076 5.68652 20.4941 0c5.68652 -5.6875 5.68652 -14.8076 0 -20.4941z" />
    <glyph glyph-name="031-paper-plane-2" unicode="&#xf11e;" 
d="M509.531 413.001c2.29199 -2.23047 3.06738 -5.59668 1.98828 -8.60938l-139.814 -389.968c-0.134766 -0.402344 -0.304688 -0.797852 -0.516602 -1.20215c-0.0458984 -0.0849609 -0.0927734 -0.169922 -0.146484 -0.263672
c-1.04785 -1.82031 -2.69531 -3.08789 -4.57324 -3.69727c-0.189453 -0.0605469 -0.380859 -0.115234 -0.589844 -0.166016c-1.90137 -0.458984 -3.97754 -0.240234 -5.8457 0.780273l-185.494 101.813l-13.124 -112.394l60.7383 60.8936
c3.1875 3.19531 8.35742 3.20312 11.5557 0.015625c3.19434 -3.18652 3.2002 -8.36035 0.0146484 -11.5557l-77.3232 -77.5195c-0.0986328 -0.100586 -0.201172 -0.198242 -0.317383 -0.305664c-0.375977 -0.34668 -0.78125 -0.651367 -1.20703 -0.915039
c-1.25879 -0.783203 -2.73633 -1.22852 -4.29492 -1.22852c-0.169922 0 -0.34082 0.00488281 -0.511719 0.0166016c-0.263672 0.015625 -0.529297 0.0458984 -0.794922 0.0878906c-2.07617 0.332031 -3.85645 1.42871 -5.1123 3
c-0.0605469 0.0761719 -0.119141 0.151367 -0.191406 0.250977c-0.71875 0.984375 -1.21973 2.13184 -1.44238 3.36328l-35.6504 174.259l-102.719 57.875c-2.75195 1.55078 -4.36328 4.54883 -4.1377 7.7002c0.224609 3.15137 2.24512 5.88965 5.19141 7.03418
l495.66 192.498c2.97949 1.16016 6.36621 0.469727 8.6582 -1.76367zM27.2324 213.288l86.6104 -48.7988l318.521 206.14zM162.72 131.064l235.643 198.096l-275.104 -178.042l25.1064 -122.718l11.333 97.0576c0.0957031 1.01367 0.383789 2.02637 0.879883 2.98535
c0.0615234 0.119141 0.125977 0.237305 0.193359 0.354492c0.520508 0.892578 1.18555 1.65332 1.94922 2.2666zM359.506 28.8057l126.421 352.62l-303.704 -255.313z" />
    <glyph glyph-name="049-share-1" unicode="&#xf130;" 
d="M405.688 119.069c50.499 0 91.6416 -41.0361 91.6416 -91.5342c0 -50.499 -41.0371 -91.5352 -91.5352 -91.5352s-91.5352 41.1426 -91.5352 91.5352c0 10.6309 1.91406 20.9434 5.31641 30.5117l-140.545 78.5645c-16.7979 -21.9004 -43.1631 -36.04 -72.7178 -36.04
c-50.499 0 -91.6416 41.0371 -91.6416 91.5352s41.1426 91.5352 91.5352 91.5352c29.5547 0 55.9199 -14.0332 72.6113 -35.9336l140.438 78.458c-3.40234 9.46191 -5.20898 19.668 -5.20898 30.2988c0 50.499 41.0361 91.5352 91.5342 91.5352
c50.499 0 91.5352 -41.0361 91.5352 -91.5352c0 -50.498 -41.1426 -91.5342 -91.5352 -91.5342c-29.5547 0 -55.9199 14.1387 -72.6113 35.9336l-140.545 -78.459c3.40234 -9.56836 5.20996 -19.668 5.20996 -30.2988c0 -10.5254 -1.80762 -20.7314 -5.10352 -30.1924
l140.651 -78.5654c16.7979 21.6875 43.0566 35.7207 72.5049 35.7207zM405.688 419.189c-34.5518 0 -62.8301 -28.1729 -62.8301 -62.8311c0 -34.6572 28.1729 -62.8301 62.8301 -62.8301c34.6582 0 62.8311 28.1729 62.8311 62.8301
c0 34.6582 -28.1729 62.8311 -62.8311 62.8311zM106.312 129.275c34.5518 0 62.8301 28.1729 62.8301 62.8311c0 34.6572 -28.1729 62.8301 -62.8301 62.8301c-34.6582 0 -62.8311 -28.1729 -62.8311 -62.8301c0 -34.6582 28.1729 -62.8311 62.8311 -62.8311z
M405.688 -35.1895c34.6582 0 62.8311 28.1729 62.8311 62.8311c0 34.6572 -28.1729 62.8301 -62.8311 62.8301c-34.6572 0 -62.8301 -28.1729 -62.8301 -62.8301c0 -34.6582 28.1729 -62.8311 62.8301 -62.8311z" />
    <glyph glyph-name="011-pinterest-1" unicode="&#xf10a;" 
d="M60.9453 169.781c-39.0469 14.8789 -72.2148 69.125 -57.3008 140.398c16.2852 76.8672 82.8086 137.703 196.785 137.703v0.117188c119.824 0 186.512 -75.7539 188.633 -166.875c2.41797 -103.906 -82.8359 -178.562 -158.02 -178.562
c-6.12109 0 -58.6211 0.9375 -83.832 33.5859c-8.52734 -25.5039 -40.5312 -130.316 -71.4844 -170.836l-22.3672 -29.3125l-4.45312 36.6055c-4.61328 38.043 16.9648 106.355 32.7266 160.348c6.34375 21.7344 26.1445 88.4805 22.5 98.7188
c-9.34766 26.1914 -9.53906 49.9648 -0.585938 72.6719c10.8398 27.332 32.5898 37.0586 49.3359 37.0586c22.2539 0 39.4141 -15.7344 38.0273 -39.918c-1.49609 -25.625 -14.3125 -64.0547 -24.3633 -96.1367c-4.10156 -13.7109 -2.19531 -26.543 5.56641 -36.9414
c6.72656 -9.02344 32.375 -18.2109 52.6328 -18.2109h0.0429688c56.7617 0 90.0039 72.9375 89.957 128.117c-0.0585938 70.4961 -55.1289 111.43 -128.699 111.477v-0.109375c-58.7617 0 -121 -28.8711 -130.199 -87.6016
c-8.52734 -40.0273 2.58984 -89.3398 12.5977 -104.398c-0.449219 -1.66797 -6.85938 -26.3008 -7.5 -27.8984zM60.9453 169.781z" />
  </font>
</defs>
</svg>
